  0
SECTION
  2
HEADER
  9
$ACADVER
  1
AC1015
  9
$ACADMAINTVER
 70
     6
  9
$DWGCODEPAGE
  3
ANSI_932
  9
$INSBASE
 10
0.0
 20
0.0
 30
0.0
  9
$EXTMIN
 10
169.7272368503354
 20
172.9449484461745
 30
-0.0015258207003583
  9
$EXTMAX
 10
1078.455874220533
 20
727.0404070977129
 30
0.0000000349246037
  9
$LIMMIN
 10
0.0
 20
0.0
  9
$LIMMAX
 10
1188.0
 20
840.0
  9
$ORTHOMODE
 70
     1
  9
$REGENMODE
 70
     1
  9
$FILLMODE
 70
     1
  9
$QTEXTMODE
 70
     0
  9
$MIRRTEXT
 70
     1
  9
$LTSCALE
 40
1.0
  9
$ATTMODE
 70
     1
  9
$TEXTSIZE
 40
0.2
  9
$TRACEWID
 40
0.05
  9
$TEXTSTYLE
  7
STANDARD
  9
$CLAYER
  8
0
  9
$CELTYPE
  6
ByLayer
  9
$CECOLOR
 62
   256
  9
$CELTSCALE
 40
1.0
  9
$DISPSILH
 70
     0
  9
$DIMSCALE
 40
1.0
  9
$DIMASZ
 40
1.0
  9
$DIMEXO
 40
0.0
  9
$DIMDLI
 40
0.5
  9
$DIMRND
 40
0.0
  9
$DIMDLE
 40
0.0
  9
$DIMEXE
 40
0.0
  9
$DIMTP
 40
0.0
  9
$DIMTM
 40
0.0
  9
$DIMTXT
 40
0.18
  9
$DIMCEN
 40
0.0
  9
$DIMTSZ
 40
0.0
  9
$DIMTOL
 70
     0
  9
$DIMLIM
 70
     0
  9
$DIMTIH
 70
     1
  9
$DIMTOH
 70
     1
  9
$DIMSE1
 70
     0
  9
$DIMSE2
 70
     0
  9
$DIMTAD
 70
     0
  9
$DIMZIN
 70
     0
  9
$DIMBLK
  1

  9
$DIMASO
 70
     0
  9
$DIMSHO
 70
     0
  9
$DIMPOST
  1

  9
$DIMAPOST
  1

  9
$DIMALT
 70
     0
  9
$DIMALTD
 70
     0
  9
$DIMALTF
 40
25.4
  9
$DIMLFAC
 40
1.0
  9
$DIMTOFL
 70
     0
  9
$DIMTVP
 40
0.0
  9
$DIMTIX
 70
     0
  9
$DIMSOXD
 70
     0
  9
$DIMSAH
 70
     0
  9
$DIMBLK1
  1

  9
$DIMBLK2
  1

  9
$DIMSTYLE
  2
Standard
  9
$DIMCLRD
 70
     0
  9
$DIMCLRE
 70
     0
  9
$DIMCLRT
 70
     0
  9
$DIMTFAC
 40
1.0
  9
$DIMGAP
 40
0.09
  9
$DIMJUST
 70
     0
  9
$DIMSD1
 70
     0
  9
$DIMSD2
 70
     0
  9
$DIMTOLJ
 70
     1
  9
$DIMTZIN
 70
     0
  9
$DIMALTZ
 70
     0
  9
$DIMALTTZ
 70
     0
  9
$DIMUPT
 70
     0
  9
$DIMDEC
 70
     4
  9
$DIMTDEC
 70
     4
  9
$DIMALTU
 70
     2
  9
$DIMALTTD
 70
     2
  9
$DIMTXSTY
  7
STANDARD
  9
$DIMAUNIT
 70
     0
  9
$DIMADEC
 70
     0
  9
$DIMALTRND
 40
0.0
  9
$DIMAZIN
 70
     0
  9
$DIMDSEP
 70
    46
  9
$DIMATFIT
 70
     3
  9
$DIMFRAC
 70
     0
  9
$DIMLDRBLK
  1

  9
$DIMLUNIT
 70
     2
  9
$DIMLWD
 70
    -2
  9
$DIMLWE
 70
    -2
  9
$DIMTMOVE
 70
     0
  9
$LUNITS
 70
     2
  9
$LUPREC
 70
     2
  9
$SKETCHINC
 40
0.0
  9
$FILLETRAD
 40
0.0
  9
$AUNITS
 70
     1
  9
$AUPREC
 70
     2
  9
$MENU
  1
ACAD
  9
$ELEVATION
 40
0.0
  9
$PELEVATION
 40
0.0
  9
$THICKNESS
 40
0.0
  9
$LIMCHECK
 70
     1
  9
$CHAMFERA
 40
0.0
  9
$CHAMFERB
 40
0.0
  9
$CHAMFERC
 40
0.0
  9
$CHAMFERD
 40
0.0
  9
$SKPOLY
 70
     0
  9
$TDCREATE
 40
2311945.483465903
  9
$TDUCREATE
 40
2311945.108465903
  9
$TDUPDATE
 40
2454799.770264027
  9
$TDUUPDATE
 40
2454799.395264027
  9
$TDINDWG
 40
0.0259499769
  9
$TDUSRTIMER
 40
0.0259489005
  9
$USRTIMER
 70
     1
  9
$ANGBASE
 50
0.0
  9
$ANGDIR
 70
     0
  9
$PDMODE
 70
     0
  9
$PDSIZE
 40
0.0
  9
$PLINEWID
 40
0.0
  9
$SPLFRAME
 70
     0
  9
$SPLINETYPE
 70
     6
  9
$SPLINESEGS
 70
     8
  9
$HANDSEED
  5
3A4
  9
$SURFTAB1
 70
     6
  9
$SURFTAB2
 70
     6
  9
$SURFTYPE
 70
     6
  9
$SURFU
 70
     6
  9
$SURFV
 70
     6
  9
$UCSBASE
  2

  9
$UCSNAME
  2

  9
$UCSORG
 10
0.0
 20
0.0
 30
0.0
  9
$UCSXDIR
 10
1.0
 20
0.0
 30
0.0
  9
$UCSYDIR
 10
0.0
 20
1.0
 30
0.0
  9
$UCSORTHOREF
  2

  9
$UCSORTHOVIEW
 70
     0
  9
$UCSORGTOP
 10
0.0
 20
0.0
 30
0.0
  9
$UCSORGBOTTOM
 10
0.0
 20
0.0
 30
0.0
  9
$UCSORGLEFT
 10
0.0
 20
0.0
 30
0.0
  9
$UCSORGRIGHT
 10
0.0
 20
0.0
 30
0.0
  9
$UCSORGFRONT
 10
0.0
 20
0.0
 30
0.0
  9
$UCSORGBACK
 10
0.0
 20
0.0
 30
0.0
  9
$PUCSBASE
  2

  9
$PUCSNAME
  2

  9
$PUCSORG
 10
0.0
 20
0.0
 30
0.0
  9
$PUCSXDIR
 10
1.0
 20
0.0
 30
0.0
  9
$PUCSYDIR
 10
0.0
 20
1.0
 30
0.0
  9
$PUCSORTHOREF
  2

  9
$PUCSORTHOVIEW
 70
     0
  9
$PUCSORGTOP
 10
0.0
 20
0.0
 30
0.0
  9
$PUCSORGBOTTOM
 10
0.0
 20
0.0
 30
0.0
  9
$PUCSORGLEFT
 10
0.0
 20
0.0
 30
0.0
  9
$PUCSORGRIGHT
 10
0.0
 20
0.0
 30
0.0
  9
$PUCSORGFRONT
 10
0.0
 20
0.0
 30
0.0
  9
$PUCSORGBACK
 10
0.0
 20
0.0
 30
0.0
  9
$USERI1
 70
     0
  9
$USERI2
 70
     0
  9
$USERI3
 70
     0
  9
$USERI4
 70
     0
  9
$USERI5
 70
     0
  9
$USERR1
 40
0.0
  9
$USERR2
 40
0.0
  9
$USERR3
 40
0.0
  9
$USERR4
 40
0.0
  9
$USERR5
 40
0.0
  9
$WORLDVIEW
 70
     1
  9
$SHADEDGE
 70
     3
  9
$SHADEDIF
 70
    70
  9
$TILEMODE
 70
     1
  9
$MAXACTVP
 70
    64
  9
$PINSBASE
 10
0.0
 20
0.0
 30
0.0
  9
$PLIMCHECK
 70
     0
  9
$PEXTMIN
 10
0.0
 20
0.0
 30
0.0
  9
$PEXTMAX
 10
297.0
 20
210.0
 30
0.0
  9
$PLIMMIN
 10
0.0
 20
0.0
  9
$PLIMMAX
 10
12.0
 20
9.0
  9
$UNITMODE
 70
     0
  9
$VISRETAIN
 70
     1
  9
$PLINEGEN
 70
     0
  9
$PSLTSCALE
 70
     1
  9
$TREEDEPTH
 70
  3020
  9
$CMLSTYLE
  2
Standard
  9
$CMLJUST
 70
     0
  9
$CMLSCALE
 40
1.0
  9
$PROXYGRAPHICS
 70
     1
  9
$MEASUREMENT
 70
     0
  9
$CELWEIGHT
370
    -1
  9
$ENDCAPS
280
     0
  9
$JOINSTYLE
280
     0
  9
$LWDISPLAY
290
     0
  9
$INSUNITS
 70
     0
  9
$HYPERLINKBASE
  1

  9
$STYLESHEET
  1

  9
$XEDIT
290
     1
  9
$CEPSNTYPE
380
     0
  9
$PSTYLEMODE
290
     1
  9
$FINGERPRINTGUID
  2
{B1B11FEF-B74E-4A76-9B3D-9A8A634F19BF}
  9
$VERSIONGUID
  2
{25A4121F-A929-4096-B501-FDA3005C70AA}
  9
$EXTNAMES
290
     1
  9
$PSVPSCALE
 40
0.0
  9
$OLESTARTUP
290
     0
  0
ENDSEC
  0
SECTION
  2
CLASSES
  0
CLASS
  1
ACDBDICTIONARYWDFLT
  2
AcDbDictionaryWithDefault
  3
AutoCAD 2000
 90
        0
280
     0
281
     0
  0
CLASS
  1
ACDBPLACEHOLDER
  2
AcDbPlaceHolder
  3
AutoCAD 2000
 90
        0
280
     0
281
     0
  0
CLASS
  1
LAYOUT
  2
AcDbLayout
  3
AutoCAD 2000
 90
        0
280
     0
281
     0
  0
ENDSEC
  0
SECTION
  2
TABLES
  0
TABLE
  2
VPORT
  5
8
330
0
100
AcDbSymbolTable
 70
    11
  0
VPORT
  5
3A3
330
8
100
AcDbSymbolTableRecord
100
AcDbViewportTableRecord
  2
*Active
 70
     0
 10
0.0
 20
0.0
 11
1.0
 21
1.0
 12
600.6350209855009
 22
458.7186153221116
 13
0.0
 23
0.0
 14
1.0
 24
1.0
 15
0.0
 25
0.0
 16
0.0
 26
0.0
 36
1.0
 17
0.0
 27
0.0
 37
0.0
 40
613.6169280983664
 41
1.461725394896719
 42
50.0
 43
0.0
 44
0.0
 50
0.0
 51
0.0
 71
     0
 72
   100
 73
     1
 74
     1
 75
     0
 76
     0
 77
     0
 78
     0
281
     0
 65
     1
110
0.0
120
0.0
130
0.0
111
1.0
121
0.0
131
0.0
112
0.0
122
1.0
132
0.0
 79
     0
146
0.0
  0
ENDTAB
  0
TABLE
  2
LTYPE
  5
5
330
0
100
AcDbSymbolTable
 70
     5
  0
LTYPE
  5
13
330
5
100
AcDbSymbolTableRecord
100
AcDbLinetypeTableRecord
  2
ByBlock
 70
     0
  3

 72
    65
 73
     0
 40
0.0
  0
LTYPE
  5
14
330
5
100
AcDbSymbolTableRecord
100
AcDbLinetypeTableRecord
  2
ByLayer
 70
     0
  3

 72
    65
 73
     0
 40
0.0
  0
LTYPE
  5
15
330
5
100
AcDbSymbolTableRecord
100
AcDbLinetypeTableRecord
  2
CONTINUOUS
 70
     0
  3
Solid line
 72
    65
 73
     0
 40
0.0
  0
LTYPE
  5
22
330
5
100
AcDbSymbolTableRecord
100
AcDbLinetypeTableRecord
  2
HIDDEN
 70
     0
  3
------------------------
 72
    65
 73
     2
 40
12.6
 49
8.4
 74
     0
 49
-4.2
 74
     0
  0
LTYPE
  5
23
330
5
100
AcDbSymbolTableRecord
100
AcDbLinetypeTableRecord
  2
DOT
 70
     0
  3
････････････････････････
 72
    65
 73
     2
 40
8.0
 49
6.0
 74
     0
 49
-2.0
 74
     0
  0
LTYPE
  5
24
330
5
100
AcDbSymbolTableRecord
100
AcDbLinetypeTableRecord
  2
DASHDOT
 70
     0
  3
--･--･--･--･--･--･--･--
 72
    65
 73
     4
 40
50.5
 49
30.0
 74
     0
 49
-9.0
 74
     0
 49
2.5
 74
     0
 49
-9.0
 74
     0
  0
LTYPE
  5
25
330
5
100
AcDbSymbolTableRecord
100
AcDbLinetypeTableRecord
  2
DIVIDE
 70
     0
  3
--･･--･･--･･--･･--･･--
 72
    65
 73
     6
 40
58.0
 49
30.0
 74
     0
 49
-9.0
 74
     0
 49
2.5
 74
     0
 49
-5.0
 74
     0
 49
2.5
 74
     0
 49
-9.0
 74
     0
  0
ENDTAB
  0
TABLE
  2
LAYER
  5
2
330
0
100
AcDbSymbolTable
 70
     3
  0
LAYER
  5
10
330
2
100
AcDbSymbolTableRecord
100
AcDbLayerTableRecord
  2
0
 70
     0
 62
     7
  6
CONTINUOUS
370
    -3
390
F
  0
LAYER
  5
26
330
2
100
AcDbSymbolTableRecord
100
AcDbLayerTableRecord
  2
1
 70
     0
 62
     7
  6
CONTINUOUS
370
    -3
390
F
  0
LAYER
  5
28E
330
2
100
AcDbSymbolTableRecord
100
AcDbLayerTableRecord
  2
Defpoints
 70
     0
 62
     7
  6
CONTINUOUS
290
     0
370
    -3
390
F
  0
ENDTAB
  0
TABLE
  2
STYLE
  5
3
330
0
100
AcDbSymbolTable
 70
     2
  0
STYLE
  5
11
330
3
100
AcDbSymbolTableRecord
100
AcDbTextStyleTableRecord
  2
STANDARD
 70
     0
 40
0.0
 41
1.0
 50
0.0
 71
     0
 42
0.2
  3
TXT
  4

  0
STYLE
  5
27
330
3
100
AcDbSymbolTableRecord
100
AcDbTextStyleTableRecord
  2
KANJI
 70
     0
 40
0.0
 41
1.0
 50
0.0
 71
     0
 42
0.2
  3
TXT
  4
BIGFONT
  0
ENDTAB
  0
TABLE
  2
VIEW
  5
6
330
0
100
AcDbSymbolTable
 70
     0
  0
ENDTAB
  0
TABLE
  2
UCS
  5
7
330
0
100
AcDbSymbolTable
 70
     0
  0
ENDTAB
  0
TABLE
  2
APPID
  5
9
330
0
100
AcDbSymbolTable
 70
     1
  0
APPID
  5
12
330
9
100
AcDbSymbolTableRecord
100
AcDbRegAppTableRecord
  2
ACAD
 70
     0
  0
ENDTAB
  0
TABLE
  2
DIMSTYLE
  5
A
330
0
100
AcDbSymbolTable
 70
     1
100
AcDbDimStyleTable
 71
     1
340
349
  0
DIMSTYLE
105
349
330
A
100
AcDbSymbolTableRecord
100
AcDbDimStyleTableRecord
  2
Standard
 70
     0
340
11
  0
ENDTAB
  0
TABLE
  2
BLOCK_RECORD
  5
1
330
0
100
AcDbSymbolTable
 70
    16
  0
BLOCK_RECORD
  5
1E
330
1
100
AcDbSymbolTableRecord
100
AcDbBlockTableRecord
  2
*Model_Space
340
21
  0
BLOCK_RECORD
  5
1A
330
1
100
AcDbSymbolTableRecord
100
AcDbBlockTableRecord
  2
*Paper_Space
340
1D
  0
BLOCK_RECORD
  5
2B
330
1
100
AcDbSymbolTableRecord
100
AcDbBlockTableRecord
  2
*D0
340
0
  0
BLOCK_RECORD
  5
34
330
1
100
AcDbSymbolTableRecord
100
AcDbBlockTableRecord
  2
*D1
340
0
  0
BLOCK_RECORD
  5
3D
330
1
100
AcDbSymbolTableRecord
100
AcDbBlockTableRecord
  2
*D2
340
0
  0
BLOCK_RECORD
  5
48
330
1
100
AcDbSymbolTableRecord
100
AcDbBlockTableRecord
  2
*D3
340
0
  0
BLOCK_RECORD
  5
53
330
1
100
AcDbSymbolTableRecord
100
AcDbBlockTableRecord
  2
*D4
340
0
  0
BLOCK_RECORD
  5
5E
330
1
100
AcDbSymbolTableRecord
100
AcDbBlockTableRecord
  2
*D5
340
0
  0
BLOCK_RECORD
  5
69
330
1
100
AcDbSymbolTableRecord
100
AcDbBlockTableRecord
  2
*D6
340
0
  0
BLOCK_RECORD
  5
28F
330
1
100
AcDbSymbolTableRecord
100
AcDbBlockTableRecord
  2
*D7
340
0
  0
BLOCK_RECORD
  5
299
330
1
100
AcDbSymbolTableRecord
100
AcDbBlockTableRecord
  2
*D8
340
0
  0
BLOCK_RECORD
  5
2A3
330
1
100
AcDbSymbolTableRecord
100
AcDbBlockTableRecord
  2
*D9
340
0
  0
BLOCK_RECORD
  5
2AF
330
1
100
AcDbSymbolTableRecord
100
AcDbBlockTableRecord
  2
*D10
340
0
  0
BLOCK_RECORD
  5
2BB
330
1
100
AcDbSymbolTableRecord
100
AcDbBlockTableRecord
  2
*D11
340
0
  0
BLOCK_RECORD
  5
332
330
1
100
AcDbSymbolTableRecord
100
AcDbBlockTableRecord
  2
*D12
340
0
  0
BLOCK_RECORD
  5
33E
330
1
100
AcDbSymbolTableRecord
100
AcDbBlockTableRecord
  2
*D13
340
0
  0
ENDTAB
  0
ENDSEC
  0
SECTION
  2
BLOCKS
  0
BLOCK
  5
1F
330
1E
100
AcDbEntity
  8
0
100
AcDbBlockBegin
  2
*Model_Space
 70
     0
 10
0.0
 20
0.0
 30
0.0
  3
*Model_Space
  1

  0
ENDBLK
  5
20
330
1E
100
AcDbEntity
  8
0
100
AcDbBlockEnd
  0
BLOCK
  5
1B
330
1A
100
AcDbEntity
 67
     1
  8
0
100
AcDbBlockBegin
  2
*Paper_Space
 70
     0
 10
0.0
 20
0.0
 30
0.0
  3
*Paper_Space
  1

  0
ENDBLK
  5
1C
330
1A
100
AcDbEntity
 67
     1
  8
0
100
AcDbBlockEnd
  0
BLOCK
  5
2C
330
2B
100
AcDbEntity
  8
1
  6
Continuous
 62
     7
100
AcDbBlockBegin
  2
*D0
 70
     1
 10
0.0
 20
0.0
 30
0.0
  3
*D0
  1

  0
LINE
  5
2D
330
2B
100
AcDbEntity
  8
1
  6
Continuous
 62
     7
100
AcDbLine
 10
208.0
 20
430.0
 30
0.0
 11
292.0
 21
430.0
 31
0.0
  0
LINE
  5
2E
330
2B
100
AcDbEntity
  8
1
  6
Continuous
 62
     7
100
AcDbLine
 10
208.0
 20
430.0
 30
0.0
 11
215.7274069999999
 21
432.0705519999999
 31
0.0
  0
LINE
  5
2F
330
2B
100
AcDbEntity
  8
1
  6
Continuous
 62
     7
100
AcDbLine
 10
208.0
 20
430.0
 30
0.0
 11
215.7274069999999
 21
427.929448
 31
0.0
  0
LINE
  5
30
330
2B
100
AcDbEntity
  8
1
  6
Continuous
 62
     7
100
AcDbLine
 10
292.0
 20
430.0
 30
0.0
 11
284.272593
 21
427.929448
 31
0.0
  0
LINE
  5
31
330
2B
100
AcDbEntity
  8
1
  6
Continuous
 62
     7
100
AcDbLine
 10
292.0
 20
430.0
 30
0.0
 11
284.272593
 21
432.0705519999999
 31
0.0
  0
TEXT
  5
32
330
2B
100
AcDbEntity
  8
1
  6
Continuous
 62
     7
100
AcDbText
 10
242.0
 20
430.0
 30
0.0
 40
16.0
  1
84
 41
0.5
  7
KANJI
100
AcDbText
  0
ENDBLK
  5
33
330
2B
100
AcDbEntity
  8
0
100
AcDbBlockEnd
  0
BLOCK
  5
35
330
34
100
AcDbEntity
  8
1
  6
Continuous
 62
     7
100
AcDbBlockBegin
  2
*D1
 70
     1
 10
0.0
 20
0.0
 30
0.0
  3
*D1
  1

  0
LINE
  5
36
330
34
100
AcDbEntity
  8
1
  6
Continuous
 62
     7
100
AcDbLine
 10
280.0
 20
417.4999999999999
 30
0.0
 11
280.0
 21
478.5
 31
0.0
  0
LINE
  5
37
330
34
100
AcDbEntity
  8
1
  6
Continuous
 62
     7
100
AcDbLine
 10
280.0
 20
417.4999999999999
 30
0.0
 11
277.9294479999999
 21
425.227407
 31
0.0
  0
LINE
  5
38
330
34
100
AcDbEntity
  8
1
  6
Continuous
 62
     7
100
AcDbLine
 10
280.0
 20
417.4999999999999
 30
0.0
 11
282.070552
 21
425.227407
 31
0.0
  0
LINE
  5
39
330
34
100
AcDbEntity
  8
1
  6
Continuous
 62
     7
100
AcDbLine
 10
280.0
 20
478.5
 30
0.0
 11
282.070552
 21
470.7725929999999
 31
0.0
  0
LINE
  5
3A
330
34
100
AcDbEntity
  8
1
  6
Continuous
 62
     7
100
AcDbLine
 10
280.0
 20
478.5
 30
0.0
 11
277.9294479999999
 21
470.7725929999999
 31
0.0
  0
TEXT
  5
3B
330
34
100
AcDbEntity
  8
1
  6
Continuous
 62
     7
100
AcDbText
 10
280.0
 20
440.0
 30
0.0
 40
16.0
  1
61
 50
90.0
 41
0.5
  7
KANJI
100
AcDbText
  0
ENDBLK
  5
3C
330
34
100
AcDbEntity
  8
0
100
AcDbBlockEnd
  0
BLOCK
  5
3E
330
3D
100
AcDbEntity
  8
1
  6
Continuous
 62
     7
100
AcDbBlockBegin
  2
*D2
 70
     1
 10
0.0
 20
0.0
 30
0.0
  3
*D2
  1

  0
LINE
  5
3F
330
3D
100
AcDbEntity
  8
1
  6
Continuous
 62
     7
100
AcDbLine
 10
360.0
 20
400.0
 30
0.0
 11
360.0
 21
504.0
 31
0.0
  0
LINE
  5
40
330
3D
100
AcDbEntity
  8
1
  6
Continuous
 62
     7
100
AcDbLine
 10
368.0
 20
400.0
 30
0.0
 11
338.0
 21
400.0
 31
0.0
  0
LINE
  5
41
330
3D
100
AcDbEntity
  8
1
  6
Continuous
 62
     7
100
AcDbLine
 10
368.0
 20
504.0
 30
0.0
 11
338.0
 21
504.0
 31
0.0
  0
LINE
  5
42
330
3D
100
AcDbEntity
  8
1
  6
Continuous
 62
     7
100
AcDbLine
 10
360.0
 20
400.0
 30
0.0
 11
357.9294479999999
 21
407.7274069999999
 31
0.0
  0
LINE
  5
43
330
3D
100
AcDbEntity
  8
1
  6
Continuous
 62
     7
100
AcDbLine
 10
360.0
 20
400.0
 30
0.0
 11
362.070552
 21
407.7274069999999
 31
0.0
  0
LINE
  5
44
330
3D
100
AcDbEntity
  8
1
  6
Continuous
 62
     7
100
AcDbLine
 10
360.0
 20
504.0
 30
0.0
 11
362.070552
 21
496.2725929999999
 31
0.0
  0
LINE
  5
45
330
3D
100
AcDbEntity
  8
1
  6
Continuous
 62
     7
100
AcDbLine
 10
360.0
 20
504.0
 30
0.0
 11
357.9294479999999
 21
496.2725929999999
 31
0.0
  0
TEXT
  5
46
330
3D
100
AcDbEntity
  8
1
  6
Continuous
 62
     7
100
AcDbText
 10
360.0
 20
440.0
 30
0.0
 40
16.0
  1
104
 50
90.0
 41
0.5
  7
KANJI
100
AcDbText
  0
ENDBLK
  5
47
330
3D
100
AcDbEntity
  8
0
100
AcDbBlockEnd
  0
BLOCK
  5
49
330
48
100
AcDbEntity
  8
1
  6
Continuous
 62
     7
100
AcDbBlockBegin
  2
*D3
 70
     1
 10
0.0
 20
0.0
 30
0.0
  3
*D3
  1

  0
LINE
  5
4A
330
48
100
AcDbEntity
  8
1
  6
Continuous
 62
     7
100
AcDbLine
 10
385.0
 20
540.0
 30
0.0
 11
822.0
 21
540.0
 31
0.0
  0
LINE
  5
4B
330
48
100
AcDbEntity
  8
1
  6
Continuous
 62
     7
100
AcDbLine
 10
385.0
 20
548.0
 30
0.0
 11
385.0
 21
518.0
 31
0.0
  0
LINE
  5
4C
330
48
100
AcDbEntity
  8
1
  6
Continuous
 62
     7
100
AcDbLine
 10
822.0
 20
548.0
 30
0.0
 11
822.0
 21
518.0
 31
0.0
  0
LINE
  5
4D
330
48
100
AcDbEntity
  8
1
  6
Continuous
 62
     7
100
AcDbLine
 10
385.0
 20
540.0
 30
0.0
 11
392.7274069999999
 21
542.0705519999999
 31
0.0
  0
LINE
  5
4E
330
48
100
AcDbEntity
  8
1
  6
Continuous
 62
     7
100
AcDbLine
 10
385.0
 20
540.0
 30
0.0
 11
392.7274069999999
 21
537.9294480000001
 31
0.0
  0
LINE
  5
4F
330
48
100
AcDbEntity
  8
1
  6
Continuous
 62
     7
100
AcDbLine
 10
822.0
 20
540.0
 30
0.0
 11
814.2725929999999
 21
537.9294480000001
 31
0.0
  0
LINE
  5
50
330
48
100
AcDbEntity
  8
1
  6
Continuous
 62
     7
100
AcDbLine
 10
822.0
 20
540.0
 30
0.0
 11
814.2725929999999
 21
542.0705519999999
 31
0.0
  0
TEXT
  5
51
330
48
100
AcDbEntity
  8
1
  6
Continuous
 62
     7
100
AcDbText
 10
591.5
 20
540.0
 30
0.0
 40
16.0
  1
437
 41
0.5
  7
KANJI
100
AcDbText
  0
ENDBLK
  5
52
330
48
100
AcDbEntity
  8
0
100
AcDbBlockEnd
  0
BLOCK
  5
54
330
53
100
AcDbEntity
  8
1
  6
Continuous
 62
     7
100
AcDbBlockBegin
  2
*D4
 70
     1
 10
0.0
 20
0.0
 30
0.0
  3
*D4
  1

  0
LINE
  5
55
330
53
100
AcDbEntity
  8
1
  6
Continuous
 62
     7
100
AcDbLine
 10
178.0
 20
540.0
 30
0.0
 11
322.0
 21
540.0
 31
0.0
  0
LINE
  5
56
330
53
100
AcDbEntity
  8
1
  6
Continuous
 62
     7
100
AcDbLine
 10
178.0
 20
548.0
 30
0.0
 11
178.0
 21
518.0
 31
0.0
  0
LINE
  5
57
330
53
100
AcDbEntity
  8
1
  6
Continuous
 62
     7
100
AcDbLine
 10
322.0
 20
548.0
 30
0.0
 11
322.0
 21
518.0
 31
0.0
  0
LINE
  5
58
330
53
100
AcDbEntity
  8
1
  6
Continuous
 62
     7
100
AcDbLine
 10
178.0
 20
540.0
 30
0.0
 11
185.727407
 21
542.0705519999999
 31
0.0
  0
LINE
  5
59
330
53
100
AcDbEntity
  8
1
  6
Continuous
 62
     7
100
AcDbLine
 10
178.0
 20
540.0
 30
0.0
 11
185.727407
 21
537.9294480000001
 31
0.0
  0
LINE
  5
5A
330
53
100
AcDbEntity
  8
1
  6
Continuous
 62
     7
100
AcDbLine
 10
322.0
 20
540.0
 30
0.0
 11
314.272593
 21
537.9294480000001
 31
0.0
  0
LINE
  5
5B
330
53
100
AcDbEntity
  8
1
  6
Continuous
 62
     7
100
AcDbLine
 10
322.0
 20
540.0
 30
0.0
 11
314.272593
 21
542.0705519999999
 31
0.0
  0
TEXT
  5
5C
330
53
100
AcDbEntity
  8
1
  6
Continuous
 62
     7
100
AcDbText
 10
238.0
 20
540.0
 30
0.0
 40
16.0
  1
144
 41
0.5
  7
KANJI
100
AcDbText
  0
ENDBLK
  5
5D
330
53
100
AcDbEntity
  8
0
100
AcDbBlockEnd
  0
BLOCK
  5
5F
330
5E
100
AcDbEntity
  8
1
  6
Continuous
 62
     7
100
AcDbBlockBegin
  2
*D5
 70
     1
 10
0.0
 20
0.0
 30
0.0
  3
*D5
  1

  0
LINE
  5
60
330
5E
100
AcDbEntity
  8
1
  6
Continuous
 62
     7
100
AcDbLine
 10
624.0
 20
230.0
 30
0.0
 11
669.0
 21
230.0
 31
0.0
  0
LINE
  5
61
330
5E
100
AcDbEntity
  8
1
  6
Continuous
 62
     7
100
AcDbLine
 10
624.0
 20
222.0
 30
0.0
 11
624.0
 21
232.0
 31
0.0
  0
LINE
  5
62
330
5E
100
AcDbEntity
  8
1
  6
Continuous
 62
     7
100
AcDbLine
 10
669.0
 20
222.0
 30
0.0
 11
669.0
 21
232.0
 31
0.0
  0
LINE
  5
63
330
5E
100
AcDbEntity
  8
1
  6
Continuous
 62
     7
100
AcDbLine
 10
624.0
 20
230.0
 30
0.0
 11
639.4548129999999
 21
234.141105
 31
0.0
  0
LINE
  5
64
330
5E
100
AcDbEntity
  8
1
  6
Continuous
 62
     7
100
AcDbLine
 10
624.0
 20
230.0
 30
0.0
 11
639.4548129999999
 21
225.858895
 31
0.0
  0
LINE
  5
65
330
5E
100
AcDbEntity
  8
1
  6
Continuous
 62
     7
100
AcDbLine
 10
669.0
 20
230.0
 30
0.0
 11
653.5451870000001
 21
225.858895
 31
0.0
  0
LINE
  5
66
330
5E
100
AcDbEntity
  8
1
  6
Continuous
 62
     7
100
AcDbLine
 10
669.0
 20
230.0
 30
0.0
 11
653.5451870000001
 21
234.141105
 31
0.0
  0
TEXT
  5
67
330
5E
100
AcDbEntity
  8
1
  6
Continuous
 62
     7
100
AcDbText
 10
638.4999999999999
 20
230.0
 30
0.0
 40
16.0
  1
45
 41
0.5
  7
KANJI
100
AcDbText
  0
ENDBLK
  5
68
330
5E
100
AcDbEntity
  8
0
100
AcDbBlockEnd
  0
BLOCK
  5
6A
330
69
100
AcDbEntity
  8
1
  6
Continuous
 62
     7
100
AcDbBlockBegin
  2
*D6
 70
     1
 10
0.0
 20
0.0
 30
0.0
  3
*D6
  1

  0
LINE
  5
6B
330
69
100
AcDbEntity
  8
1
  6
Continuous
 62
     7
100
AcDbLine
 10
637.0
 20
230.0
 30
0.0
 11
721.0
 21
230.0
 31
0.0
  0
LINE
  5
6C
330
69
100
AcDbEntity
  8
1
  6
Continuous
 62
     7
100
AcDbLine
 10
669.0
 20
222.0
 30
0.0
 11
669.0
 21
232.0
 31
0.0
  0
LINE
  5
6D
330
69
100
AcDbEntity
  8
1
  6
Continuous
 62
     7
100
AcDbLine
 10
689.0
 20
222.0
 30
0.0
 11
689.0
 21
232.0
 31
0.0
  0
LINE
  5
6E
330
69
100
AcDbEntity
  8
1
  6
Continuous
 62
     7
100
AcDbLine
 10
669.0
 20
230.0
 30
0.0
 11
653.5451870000001
 21
225.858895
 31
0.0
  0
LINE
  5
6F
330
69
100
AcDbEntity
  8
1
  6
Continuous
 62
     7
100
AcDbLine
 10
669.0
 20
230.0
 30
0.0
 11
653.5451870000001
 21
234.141105
 31
0.0
  0
LINE
  5
70
330
69
100
AcDbEntity
  8
1
  6
Continuous
 62
     7
100
AcDbLine
 10
689.0
 20
230.0
 30
0.0
 11
704.4548129999999
 21
234.141105
 31
0.0
  0
LINE
  5
71
330
69
100
AcDbEntity
  8
1
  6
Continuous
 62
     7
100
AcDbLine
 10
689.0
 20
230.0
 30
0.0
 11
704.4548129999999
 21
225.858895
 31
0.0
  0
TEXT
  5
72
330
69
100
AcDbEntity
  8
1
  6
Continuous
 62
     7
100
AcDbText
 10
671.0
 20
230.0
 30
0.0
 40
16.0
  1
20
 41
0.5
  7
KANJI
100
AcDbText
  0
ENDBLK
  5
73
330
69
100
AcDbEntity
  8
0
100
AcDbBlockEnd
  0
BLOCK
  5
296
330
28F
100
AcDbEntity
  8
0
100
AcDbBlockBegin
  2
*D7
 70
     1
 10
0.0
 20
0.0
 30
0.0
  3
*D7
  1

  0
LINE
  5
290
330
28F
100
AcDbEntity
  8
1
  6
Continuous
 62
     0
370
    -2
100
AcDbLine
 10
209.0
 20
430.0
 30
0.0
 11
291.0
 21
430.0
 31
0.0
  0
SOLID
  5
291
330
28F
100
AcDbEntity
  8
1
  6
Continuous
 62
     0
100
AcDbTrace
 10
209.0
 20
430.1666666666666
 30
0.0
 11
209.0
 21
429.8333333333332
 31
0.0
 12
208.0
 22
430.0
 32
0.0
 13
208.0
 23
430.0
 33
0.0
  0
SOLID
  5
292
330
28F
100
AcDbEntity
  8
1
  6
Continuous
 62
     0
100
AcDbTrace
 10
291.0
 20
430.1666666666666
 30
0.0
 11
291.0
 21
429.8333333333332
 31
0.0
 12
292.0
 22
430.0
 32
0.0
 13
292.0
 23
430.0
 33
0.0
  0
POINT
  5
293
330
28F
100
AcDbEntity
  8
Defpoints
  6
Continuous
 62
     0
100
AcDbPoint
 10
208.0
 20
430.0
 30
0.0
  0
POINT
  5
294
330
28F
100
AcDbEntity
  8
Defpoints
  6
Continuous
 62
     0
100
AcDbPoint
 10
292.0
 20
430.0
 30
0.0
  0
POINT
  5
295
330
28F
100
AcDbEntity
  8
Defpoints
  6
Continuous
 62
     0
100
AcDbPoint
 10
292.0
 20
430.0
 30
0.0
  0
ENDBLK
  5
297
330
28F
100
AcDbEntity
  8
0
100
AcDbBlockEnd
  0
BLOCK
  5
2A0
330
299
100
AcDbEntity
  8
0
100
AcDbBlockBegin
  2
*D8
 70
     1
 10
0.0
 20
0.0
 30
0.0
  3
*D8
  1

  0
LINE
  5
29A
330
299
100
AcDbEntity
  8
1
  6
Continuous
 62
     0
370
    -2
100
AcDbLine
 10
280.0
 20
418.5
 30
0.0
 11
280.0
 21
477.5
 31
0.0
  0
SOLID
  5
29B
330
299
100
AcDbEntity
  8
1
  6
Continuous
 62
     0
100
AcDbTrace
 10
279.8333333333333
 20
418.5
 30
0.0
 11
280.1666666666666
 21
418.5
 31
0.0
 12
280.0
 22
417.4999999999999
 32
0.0
 13
280.0
 23
417.4999999999999
 33
0.0
  0
SOLID
  5
29C
330
299
100
AcDbEntity
  8
1
  6
Continuous
 62
     0
100
AcDbTrace
 10
279.8333333333333
 20
477.5
 30
0.0
 11
280.1666666666666
 21
477.5
 31
0.0
 12
280.0
 22
478.5
 32
0.0
 13
280.0
 23
478.5
 33
0.0
  0
POINT
  5
29D
330
299
100
AcDbEntity
  8
Defpoints
  6
Continuous
 62
     0
100
AcDbPoint
 10
280.0
 20
417.4999999999999
 30
0.0
  0
POINT
  5
29E
330
299
100
AcDbEntity
  8
Defpoints
  6
Continuous
 62
     0
100
AcDbPoint
 10
280.0
 20
478.5
 30
0.0
  0
POINT
  5
29F
330
299
100
AcDbEntity
  8
Defpoints
  6
Continuous
 62
     0
100
AcDbPoint
 10
280.0
 20
478.5
 30
0.0
  0
ENDBLK
  5
2A1
330
299
100
AcDbEntity
  8
0
100
AcDbBlockEnd
  0
BLOCK
  5
2AC
330
2A3
100
AcDbEntity
  8
0
100
AcDbBlockBegin
  2
*D9
 70
     1
 10
0.0
 20
0.0
 30
0.0
  3
*D9
  1

  0
LINE
  5
2A4
330
2A3
100
AcDbEntity
  8
1
  6
Continuous
 62
     0
370
    -2
100
AcDbLine
 10
338.0
 20
400.0
 30
0.0
 11
360.0
 21
400.0
 31
0.0
  0
LINE
  5
2A5
330
2A3
100
AcDbEntity
  8
1
  6
Continuous
 62
     0
370
    -2
100
AcDbLine
 10
338.0
 20
504.0
 30
0.0
 11
360.0
 21
504.0
 31
0.0
  0
LINE
  5
2A6
330
2A3
100
AcDbEntity
  8
1
  6
Continuous
 62
     0
370
    -2
100
AcDbLine
 10
360.0
 20
401.0
 30
0.0
 11
360.0
 21
503.0
 31
0.0
  0
SOLID
  5
2A7
330
2A3
100
AcDbEntity
  8
1
  6
Continuous
 62
     0
100
AcDbTrace
 10
359.8333333333333
 20
401.0
 30
0.0
 11
360.1666666666667
 21
401.0
 31
0.0
 12
360.0
 22
400.0
 32
0.0
 13
360.0
 23
400.0
 33
0.0
  0
SOLID
  5
2A8
330
2A3
100
AcDbEntity
  8
1
  6
Continuous
 62
     0
100
AcDbTrace
 10
359.8333333333333
 20
503.0
 30
0.0
 11
360.1666666666667
 21
503.0
 31
0.0
 12
360.0
 22
504.0
 32
0.0
 13
360.0
 23
504.0
 33
0.0
  0
POINT
  5
2A9
330
2A3
100
AcDbEntity
  8
Defpoints
  6
Continuous
 62
     0
100
AcDbPoint
 10
338.0
 20
400.0
 30
0.0
  0
POINT
  5
2AA
330
2A3
100
AcDbEntity
  8
Defpoints
  6
Continuous
 62
     0
100
AcDbPoint
 10
338.0
 20
504.0
 30
0.0
  0
POINT
  5
2AB
330
2A3
100
AcDbEntity
  8
Defpoints
  6
Continuous
 62
     0
100
AcDbPoint
 10
360.0
 20
504.0
 30
0.0
  0
ENDBLK
  5
2AD
330
2A3
100
AcDbEntity
  8
0
100
AcDbBlockEnd
  0
BLOCK
  5
2B8
330
2AF
100
AcDbEntity
  8
0
100
AcDbBlockBegin
  2
*D10
 70
     1
 10
0.0
 20
0.0
 30
0.0
  3
*D10
  1

  0
LINE
  5
2B0
330
2AF
100
AcDbEntity
  8
1
  6
Continuous
 62
     0
370
    -2
100
AcDbLine
 10
385.0
 20
518.0
 30
0.0
 11
385.0
 21
540.0
 31
0.0
  0
LINE
  5
2B1
330
2AF
100
AcDbEntity
  8
1
  6
Continuous
 62
     0
370
    -2
100
AcDbLine
 10
822.0
 20
518.0
 30
0.0
 11
822.0
 21
540.0
 31
0.0
  0
LINE
  5
2B2
330
2AF
100
AcDbEntity
  8
1
  6
Continuous
 62
     0
370
    -2
100
AcDbLine
 10
386.0
 20
540.0
 30
0.0
 11
821.0
 21
540.0
 31
0.0
  0
SOLID
  5
2B3
330
2AF
100
AcDbEntity
  8
1
  6
Continuous
 62
     0
100
AcDbTrace
 10
386.0
 20
540.1666666666666
 30
0.0
 11
386.0
 21
539.8333333333333
 31
0.0
 12
385.0
 22
540.0
 32
0.0
 13
385.0
 23
540.0
 33
0.0
  0
SOLID
  5
2B4
330
2AF
100
AcDbEntity
  8
1
  6
Continuous
 62
     0
100
AcDbTrace
 10
821.0
 20
540.1666666666666
 30
0.0
 11
821.0
 21
539.8333333333333
 31
0.0
 12
822.0
 22
540.0
 32
0.0
 13
822.0
 23
540.0
 33
0.0
  0
POINT
  5
2B5
330
2AF
100
AcDbEntity
  8
Defpoints
  6
Continuous
 62
     0
100
AcDbPoint
 10
385.0
 20
518.0
 30
0.0
  0
POINT
  5
2B6
330
2AF
100
AcDbEntity
  8
Defpoints
  6
Continuous
 62
     0
100
AcDbPoint
 10
822.0
 20
518.0
 30
0.0
  0
POINT
  5
2B7
330
2AF
100
AcDbEntity
  8
Defpoints
  6
Continuous
 62
     0
100
AcDbPoint
 10
822.0
 20
540.0
 30
0.0
  0
ENDBLK
  5
2B9
330
2AF
100
AcDbEntity
  8
0
100
AcDbBlockEnd
  0
BLOCK
  5
2C4
330
2BB
100
AcDbEntity
  8
0
100
AcDbBlockBegin
  2
*D11
 70
     1
 10
0.0
 20
0.0
 30
0.0
  3
*D11
  1

  0
LINE
  5
2BC
330
2BB
100
AcDbEntity
  8
1
  6
Continuous
 62
     0
370
    -2
100
AcDbLine
 10
178.0
 20
518.0
 30
0.0
 11
178.0
 21
540.0
 31
0.0
  0
LINE
  5
2BD
330
2BB
100
AcDbEntity
  8
1
  6
Continuous
 62
     0
370
    -2
100
AcDbLine
 10
322.0
 20
518.0
 30
0.0
 11
322.0
 21
540.0
 31
0.0
  0
LINE
  5
2BE
330
2BB
100
AcDbEntity
  8
1
  6
Continuous
 62
     0
370
    -2
100
AcDbLine
 10
179.0
 20
540.0
 30
0.0
 11
321.0
 21
540.0
 31
0.0
  0
SOLID
  5
2BF
330
2BB
100
AcDbEntity
  8
1
  6
Continuous
 62
     0
100
AcDbTrace
 10
179.0
 20
540.1666666666666
 30
0.0
 11
179.0
 21
539.8333333333333
 31
0.0
 12
178.0
 22
540.0
 32
0.0
 13
178.0
 23
540.0
 33
0.0
  0
SOLID
  5
2C0
330
2BB
100
AcDbEntity
  8
1
  6
Continuous
 62
     0
100
AcDbTrace
 10
321.0
 20
540.1666666666666
 30
0.0
 11
321.0
 21
539.8333333333333
 31
0.0
 12
322.0
 22
540.0
 32
0.0
 13
322.0
 23
540.0
 33
0.0
  0
POINT
  5
2C1
330
2BB
100
AcDbEntity
  8
Defpoints
  6
Continuous
 62
     0
100
AcDbPoint
 10
178.0
 20
518.0
 30
0.0
  0
POINT
  5
2C2
330
2BB
100
AcDbEntity
  8
Defpoints
  6
Continuous
 62
     0
100
AcDbPoint
 10
322.0
 20
518.0
 30
0.0
  0
POINT
  5
2C3
330
2BB
100
AcDbEntity
  8
Defpoints
  6
Continuous
 62
     0
100
AcDbPoint
 10
322.0
 20
540.0
 30
0.0
  0
ENDBLK
  5
2C5
330
2BB
100
AcDbEntity
  8
0
100
AcDbBlockEnd
  0
BLOCK
  5
33B
330
332
100
AcDbEntity
  8
0
100
AcDbBlockBegin
  2
*D12
 70
     1
 10
0.0
 20
0.0
 30
0.0
  3
*D12
  1

  0
LINE
  5
333
330
332
100
AcDbEntity
  8
1
  6
Continuous
 62
     0
370
    -2
100
AcDbLine
 10
624.0
 20
232.0
 30
0.0
 11
624.0
 21
230.0
 31
0.0
  0
LINE
  5
334
330
332
100
AcDbEntity
  8
1
  6
Continuous
 62
     0
370
    -2
100
AcDbLine
 10
669.0
 20
232.0
 30
0.0
 11
669.0
 21
230.0
 31
0.0
  0
LINE
  5
335
330
332
100
AcDbEntity
  8
1
  6
Continuous
 62
     0
370
    -2
100
AcDbLine
 10
625.0
 20
230.0
 30
0.0
 11
668.0
 21
230.0
 31
0.0
  0
SOLID
  5
336
330
332
100
AcDbEntity
  8
1
  6
Continuous
 62
     0
100
AcDbTrace
 10
625.0
 20
230.1666666666666
 30
0.0
 11
625.0
 21
229.8333333333333
 31
0.0
 12
624.0
 22
230.0
 32
0.0
 13
624.0
 23
230.0
 33
0.0
  0
SOLID
  5
337
330
332
100
AcDbEntity
  8
1
  6
Continuous
 62
     0
100
AcDbTrace
 10
668.0
 20
230.1666666666666
 30
0.0
 11
668.0
 21
229.8333333333333
 31
0.0
 12
669.0
 22
230.0
 32
0.0
 13
669.0
 23
230.0
 33
0.0
  0
POINT
  5
338
330
332
100
AcDbEntity
  8
Defpoints
  6
Continuous
 62
     0
100
AcDbPoint
 10
624.0
 20
232.0
 30
0.0
  0
POINT
  5
339
330
332
100
AcDbEntity
  8
Defpoints
  6
Continuous
 62
     0
100
AcDbPoint
 10
669.0
 20
232.0
 30
0.0
  0
POINT
  5
33A
330
332
100
AcDbEntity
  8
Defpoints
  6
Continuous
 62
     0
100
AcDbPoint
 10
669.0
 20
230.0
 30
0.0
  0
ENDBLK
  5
33C
330
332
100
AcDbEntity
  8
0
100
AcDbBlockEnd
  0
BLOCK
  5
347
330
33E
100
AcDbEntity
  8
0
100
AcDbBlockBegin
  2
*D13
 70
     1
 10
0.0
 20
0.0
 30
0.0
  3
*D13
  1

  0
LINE
  5
33F
330
33E
100
AcDbEntity
  8
1
  6
Continuous
 62
     0
370
    -2
100
AcDbLine
 10
669.0
 20
232.0
 30
0.0
 11
669.0
 21
230.0
 31
0.0
  0
LINE
  5
340
330
33E
100
AcDbEntity
  8
1
  6
Continuous
 62
     0
370
    -2
100
AcDbLine
 10
689.0
 20
232.0
 30
0.0
 11
689.0
 21
230.0
 31
0.0
  0
LINE
  5
341
330
33E
100
AcDbEntity
  8
1
  6
Continuous
 62
     0
370
    -2
100
AcDbLine
 10
670.0
 20
230.0
 30
0.0
 11
688.0
 21
230.0
 31
0.0
  0
SOLID
  5
342
330
33E
100
AcDbEntity
  8
1
  6
Continuous
 62
     0
100
AcDbTrace
 10
670.0
 20
230.1666666666666
 30
0.0
 11
670.0
 21
229.8333333333333
 31
0.0
 12
669.0
 22
230.0
 32
0.0
 13
669.0
 23
230.0
 33
0.0
  0
SOLID
  5
343
330
33E
100
AcDbEntity
  8
1
  6
Continuous
 62
     0
100
AcDbTrace
 10
688.0
 20
230.1666666666666
 30
0.0
 11
688.0
 21
229.8333333333333
 31
0.0
 12
689.0
 22
230.0
 32
0.0
 13
689.0
 23
230.0
 33
0.0
  0
POINT
  5
344
330
33E
100
AcDbEntity
  8
Defpoints
  6
Continuous
 62
     0
100
AcDbPoint
 10
669.0
 20
232.0
 30
0.0
  0
POINT
  5
345
330
33E
100
AcDbEntity
  8
Defpoints
  6
Continuous
 62
     0
100
AcDbPoint
 10
689.0
 20
232.0
 30
0.0
  0
POINT
  5
346
330
33E
100
AcDbEntity
  8
Defpoints
  6
Continuous
 62
     0
100
AcDbPoint
 10
689.0
 20
230.0
 30
0.0
  0
ENDBLK
  5
348
330
33E
100
AcDbEntity
  8
0
100
AcDbBlockEnd
  0
ENDSEC
  0
SECTION
  2
ENTITIES
  0
CIRCLE
  5
B3
330
1E
100
AcDbEntity
  8
1
  6
Continuous
 62
     7
100
AcDbCircle
 10
624.0
 20
250.0
 30
0.0
 40
2.5
  0
CIRCLE
  5
B4
330
1E
100
AcDbEntity
  8
1
  6
Continuous
 62
     7
100
AcDbCircle
 10
624.0
 20
250.0
 30
0.0
 40
3.5
  0
LINE
  5
B5
330
1E
100
AcDbEntity
  8
1
  6
DASHDOT
 62
     7
100
AcDbLine
 10
624.0
 20
260.0
 30
0.0
 11
624.0
 21
240.0
 31
0.0
  0
LINE
  5
B6
330
1E
100
AcDbEntity
  8
1
  6
Continuous
 62
     7
100
AcDbLine
 10
790.0
 20
173.0
 30
0.0
 11
802.0
 21
173.0
 31
0.0
  0
LINE
  5
B7
330
1E
100
AcDbEntity
  8
1
  6
Continuous
 62
     7
100
AcDbLine
 10
802.0
 20
327.0
 30
0.0
 11
790.0
 21
327.0
 31
0.0
  0
LINE
  5
B8
330
1E
100
AcDbEntity
  8
1
  6
Continuous
 62
     7
100
AcDbLine
 10
790.0
 20
173.0
 30
0.0
 11
790.0
 21
176.0
 31
0.0
  0
LINE
  5
B9
330
1E
100
AcDbEntity
  8
1
  6
Continuous
 62
     7
100
AcDbLine
 10
790.0
 20
176.0
 30
0.0
 11
802.0
 21
176.0
 31
0.0
  0
LINE
  5
BA
330
1E
100
AcDbEntity
  8
1
  6
Continuous
 62
     7
100
AcDbLine
 10
802.0
 20
176.0
 30
0.0
 11
802.0
 21
324.0
 31
0.0
  0
LINE
  5
BB
330
1E
100
AcDbEntity
  8
1
  6
Continuous
 62
     7
100
AcDbLine
 10
802.0
 20
324.0
 30
0.0
 11
790.0
 21
324.0
 31
0.0
  0
LINE
  5
BC
330
1E
100
AcDbEntity
  8
1
  6
Continuous
 62
     7
100
AcDbLine
 10
790.0
 20
324.0
 30
0.0
 11
790.0
 21
327.0
 31
0.0
  0
LINE
  5
BD
330
1E
100
AcDbEntity
  8
1
  6
Continuous
 62
     7
100
AcDbLine
 10
806.0
 20
262.5
 30
0.0
 11
806.0
 21
237.5
 31
0.0
  0
LINE
  5
BE
330
1E
100
AcDbEntity
  8
1
  6
Continuous
 62
     7
100
AcDbLine
 10
806.0
 20
237.5
 30
0.0
 11
818.0
 21
237.5
 31
0.0
  0
LINE
  5
BF
330
1E
100
AcDbEntity
  8
1
  6
Continuous
 62
     7
100
AcDbLine
 10
818.0
 20
237.5
 30
0.0
 11
818.0
 21
262.5
 31
0.0
  0
LINE
  5
C0
330
1E
100
AcDbEntity
  8
1
  6
Continuous
 62
     7
100
AcDbLine
 10
818.0
 20
262.5
 30
0.0
 11
806.0
 21
262.5
 31
0.0
  0
LINE
  5
C1
330
1E
100
AcDbEntity
  8
1
  6
Continuous
 62
     7
100
AcDbLine
 10
810.25
 20
251.75
 30
0.0
 11
810.25
 21
248.2499999999999
 31
0.0
  0
LINE
  5
C2
330
1E
100
AcDbEntity
  8
1
  6
Continuous
 62
     7
100
AcDbLine
 10
810.25
 20
248.2499999999999
 30
0.0
 11
813.7499999999999
 21
248.2499999999999
 31
0.0
  0
LINE
  5
C3
330
1E
100
AcDbEntity
  8
1
  6
Continuous
 62
     7
100
AcDbLine
 10
813.7499999999999
 20
248.2499999999999
 30
0.0
 11
813.7499999999999
 21
251.75
 31
0.0
  0
LINE
  5
C4
330
1E
100
AcDbEntity
  8
1
  6
Continuous
 62
     7
100
AcDbLine
 10
813.7499999999999
 20
251.75
 30
0.0
 11
810.25
 21
251.75
 31
0.0
  0
LINE
  5
C5
330
1E
100
AcDbEntity
  8
1
  6
Continuous
 62
     7
100
AcDbLine
 10
810.25
 20
246.75
 30
0.0
 11
810.25
 21
243.25
 31
0.0
  0
LINE
  5
C6
330
1E
100
AcDbEntity
  8
1
  6
Continuous
 62
     7
100
AcDbLine
 10
810.25
 20
243.25
 30
0.0
 11
813.7499999999999
 21
243.25
 31
0.0
  0
LINE
  5
C7
330
1E
100
AcDbEntity
  8
1
  6
Continuous
 62
     7
100
AcDbLine
 10
813.7499999999999
 20
243.25
 30
0.0
 11
813.7499999999999
 21
246.75
 31
0.0
  0
LINE
  5
C8
330
1E
100
AcDbEntity
  8
1
  6
Continuous
 62
     7
100
AcDbLine
 10
813.7499999999999
 20
246.75
 30
0.0
 11
810.25
 21
246.75
 31
0.0
  0
LINE
  5
C9
330
1E
100
AcDbEntity
  8
1
  6
Continuous
 62
     7
100
AcDbLine
 10
810.25
 20
241.7499999999999
 30
0.0
 11
810.25
 21
238.2499999999999
 31
0.0
  0
LINE
  5
CA
330
1E
100
AcDbEntity
  8
1
  6
Continuous
 62
     7
100
AcDbLine
 10
810.25
 20
238.2499999999999
 30
0.0
 11
813.7499999999999
 21
238.2499999999999
 31
0.0
  0
LINE
  5
CB
330
1E
100
AcDbEntity
  8
1
  6
Continuous
 62
     7
100
AcDbLine
 10
813.7499999999999
 20
238.2499999999999
 30
0.0
 11
813.7499999999999
 21
241.7499999999999
 31
0.0
  0
LINE
  5
CC
330
1E
100
AcDbEntity
  8
1
  6
Continuous
 62
     7
100
AcDbLine
 10
813.7499999999999
 20
241.7499999999999
 30
0.0
 11
810.25
 21
241.7499999999999
 31
0.0
  0
LINE
  5
CD
330
1E
100
AcDbEntity
  8
1
  6
Continuous
 62
     7
100
AcDbLine
 10
806.0
 20
251.75
 30
0.0
 11
808.75
 21
251.75
 31
0.0
  0
LINE
  5
CE
330
1E
100
AcDbEntity
  8
1
  6
Continuous
 62
     7
100
AcDbLine
 10
808.75
 20
251.75
 30
0.0
 11
808.75
 21
248.2499999999999
 31
0.0
  0
LINE
  5
CF
330
1E
100
AcDbEntity
  8
1
  6
Continuous
 62
     7
100
AcDbLine
 10
808.75
 20
248.2499999999999
 30
0.0
 11
806.0
 21
248.2499999999999
 31
0.0
  0
LINE
  5
D0
330
1E
100
AcDbEntity
  8
1
  6
Continuous
 62
     7
100
AcDbLine
 10
806.0
 20
246.75
 30
0.0
 11
808.75
 21
246.75
 31
0.0
  0
LINE
  5
D1
330
1E
100
AcDbEntity
  8
1
  6
Continuous
 62
     7
100
AcDbLine
 10
808.75
 20
246.75
 30
0.0
 11
808.75
 21
243.25
 31
0.0
  0
LINE
  5
D2
330
1E
100
AcDbEntity
  8
1
  6
Continuous
 62
     7
100
AcDbLine
 10
808.75
 20
243.25
 30
0.0
 11
806.0
 21
243.25
 31
0.0
  0
LINE
  5
D3
330
1E
100
AcDbEntity
  8
1
  6
Continuous
 62
     7
100
AcDbLine
 10
806.0
 20
241.7499999999999
 30
0.0
 11
808.75
 21
241.7499999999999
 31
0.0
  0
LINE
  5
D4
330
1E
100
AcDbEntity
  8
1
  6
Continuous
 62
     7
100
AcDbLine
 10
808.75
 20
241.7499999999999
 30
0.0
 11
808.75
 21
238.2499999999999
 31
0.0
  0
LINE
  5
D5
330
1E
100
AcDbEntity
  8
1
  6
Continuous
 62
     7
100
AcDbLine
 10
808.75
 20
238.2499999999999
 30
0.0
 11
806.0
 21
238.2499999999999
 31
0.0
  0
LINE
  5
D6
330
1E
100
AcDbEntity
  8
1
  6
Continuous
 62
     7
100
AcDbLine
 10
818.0
 20
251.75
 30
0.0
 11
815.2499999999999
 21
251.75
 31
0.0
  0
LINE
  5
D7
330
1E
100
AcDbEntity
  8
1
  6
Continuous
 62
     7
100
AcDbLine
 10
815.2499999999999
 20
251.75
 30
0.0
 11
815.2499999999999
 21
248.2499999999999
 31
0.0
  0
LINE
  5
D8
330
1E
100
AcDbEntity
  8
1
  6
Continuous
 62
     7
100
AcDbLine
 10
815.2499999999999
 20
248.2499999999999
 30
0.0
 11
818.0
 21
248.2499999999999
 31
0.0
  0
LINE
  5
D9
330
1E
100
AcDbEntity
  8
1
  6
Continuous
 62
     7
100
AcDbLine
 10
818.0
 20
246.75
 30
0.0
 11
815.2499999999999
 21
246.75
 31
0.0
  0
LINE
  5
DA
330
1E
100
AcDbEntity
  8
1
  6
Continuous
 62
     7
100
AcDbLine
 10
815.2499999999999
 20
246.75
 30
0.0
 11
815.2499999999999
 21
243.25
 31
0.0
  0
LINE
  5
DB
330
1E
100
AcDbEntity
  8
1
  6
Continuous
 62
     7
100
AcDbLine
 10
815.2499999999999
 20
243.25
 30
0.0
 11
818.0
 21
243.25
 31
0.0
  0
LINE
  5
DC
330
1E
100
AcDbEntity
  8
1
  6
Continuous
 62
     7
100
AcDbLine
 10
818.0
 20
241.7499999999999
 30
0.0
 11
815.2499999999999
 21
241.7499999999999
 31
0.0
  0
LINE
  5
DD
330
1E
100
AcDbEntity
  8
1
  6
Continuous
 62
     7
100
AcDbLine
 10
815.2499999999999
 20
241.7499999999999
 30
0.0
 11
815.2499999999999
 21
238.2499999999999
 31
0.0
  0
LINE
  5
DE
330
1E
100
AcDbEntity
  8
1
  6
Continuous
 62
     7
100
AcDbLine
 10
815.2499999999999
 20
238.2499999999999
 30
0.0
 11
818.0
 21
238.2499999999999
 31
0.0
  0
LINE
  5
DF
330
1E
100
AcDbEntity
  8
1
  6
Continuous
 62
     7
100
AcDbLine
 10
810.25
 20
253.25
 30
0.0
 11
810.25
 21
256.7499999999999
 31
0.0
  0
LINE
  5
E0
330
1E
100
AcDbEntity
  8
1
  6
Continuous
 62
     7
100
AcDbLine
 10
810.25
 20
256.7499999999999
 30
0.0
 11
813.7499999999999
 21
256.7499999999999
 31
0.0
  0
LINE
  5
E1
330
1E
100
AcDbEntity
  8
1
  6
Continuous
 62
     7
100
AcDbLine
 10
813.7499999999999
 20
256.7499999999999
 30
0.0
 11
813.7499999999999
 21
253.25
 31
0.0
  0
LINE
  5
E2
330
1E
100
AcDbEntity
  8
1
  6
Continuous
 62
     7
100
AcDbLine
 10
813.7499999999999
 20
253.25
 30
0.0
 11
810.25
 21
253.25
 31
0.0
  0
LINE
  5
E3
330
1E
100
AcDbEntity
  8
1
  6
Continuous
 62
     7
100
AcDbLine
 10
810.25
 20
258.25
 30
0.0
 11
810.25
 21
261.75
 31
0.0
  0
LINE
  5
E4
330
1E
100
AcDbEntity
  8
1
  6
Continuous
 62
     7
100
AcDbLine
 10
810.25
 20
261.75
 30
0.0
 11
813.7499999999999
 21
261.75
 31
0.0
  0
LINE
  5
E5
330
1E
100
AcDbEntity
  8
1
  6
Continuous
 62
     7
100
AcDbLine
 10
813.7499999999999
 20
261.75
 30
0.0
 11
813.7499999999999
 21
258.25
 31
0.0
  0
LINE
  5
E6
330
1E
100
AcDbEntity
  8
1
  6
Continuous
 62
     7
100
AcDbLine
 10
813.7499999999999
 20
258.25
 30
0.0
 11
810.25
 21
258.25
 31
0.0
  0
LINE
  5
E7
330
1E
100
AcDbEntity
  8
1
  6
Continuous
 62
     7
100
AcDbLine
 10
806.0
 20
253.25
 30
0.0
 11
808.75
 21
253.25
 31
0.0
  0
LINE
  5
E8
330
1E
100
AcDbEntity
  8
1
  6
Continuous
 62
     7
100
AcDbLine
 10
808.75
 20
253.25
 30
0.0
 11
808.75
 21
256.7499999999999
 31
0.0
  0
LINE
  5
E9
330
1E
100
AcDbEntity
  8
1
  6
Continuous
 62
     7
100
AcDbLine
 10
808.75
 20
256.7499999999999
 30
0.0
 11
806.0
 21
256.7499999999999
 31
0.0
  0
LINE
  5
EA
330
1E
100
AcDbEntity
  8
1
  6
Continuous
 62
     7
100
AcDbLine
 10
806.0
 20
258.25
 30
0.0
 11
808.75
 21
258.25
 31
0.0
  0
LINE
  5
EB
330
1E
100
AcDbEntity
  8
1
  6
Continuous
 62
     7
100
AcDbLine
 10
808.75
 20
258.25
 30
0.0
 11
808.75
 21
261.75
 31
0.0
  0
LINE
  5
EC
330
1E
100
AcDbEntity
  8
1
  6
Continuous
 62
     7
100
AcDbLine
 10
808.75
 20
261.75
 30
0.0
 11
806.0
 21
261.75
 31
0.0
  0
LINE
  5
ED
330
1E
100
AcDbEntity
  8
1
  6
Continuous
 62
     7
100
AcDbLine
 10
818.0
 20
253.25
 30
0.0
 11
815.2499999999999
 21
253.25
 31
0.0
  0
LINE
  5
EE
330
1E
100
AcDbEntity
  8
1
  6
Continuous
 62
     7
100
AcDbLine
 10
815.2499999999999
 20
253.25
 30
0.0
 11
815.2499999999999
 21
256.7499999999999
 31
0.0
  0
LINE
  5
EF
330
1E
100
AcDbEntity
  8
1
  6
Continuous
 62
     7
100
AcDbLine
 10
815.2499999999999
 20
256.7499999999999
 30
0.0
 11
818.0
 21
256.7499999999999
 31
0.0
  0
LINE
  5
F0
330
1E
100
AcDbEntity
  8
1
  6
Continuous
 62
     7
100
AcDbLine
 10
818.0
 20
258.25
 30
0.0
 11
815.2499999999999
 21
258.25
 31
0.0
  0
LINE
  5
F1
330
1E
100
AcDbEntity
  8
1
  6
Continuous
 62
     7
100
AcDbLine
 10
815.2499999999999
 20
258.25
 30
0.0
 11
815.2499999999999
 21
261.75
 31
0.0
  0
LINE
  5
F2
330
1E
100
AcDbEntity
  8
1
  6
Continuous
 62
     7
100
AcDbLine
 10
815.2499999999999
 20
261.75
 30
0.0
 11
818.0
 21
261.75
 31
0.0
  0
LINE
  5
F3
330
1E
100
AcDbEntity
  8
1
  6
Continuous
 62
     7
100
AcDbLine
 10
806.0
 20
291.0
 30
0.0
 11
806.0
 21
266.0
 31
0.0
  0
LINE
  5
F4
330
1E
100
AcDbEntity
  8
1
  6
Continuous
 62
     7
100
AcDbLine
 10
806.0
 20
266.0
 30
0.0
 11
818.0
 21
266.0
 31
0.0
  0
LINE
  5
F5
330
1E
100
AcDbEntity
  8
1
  6
Continuous
 62
     7
100
AcDbLine
 10
818.0
 20
266.0
 30
0.0
 11
818.0
 21
291.0
 31
0.0
  0
LINE
  5
F6
330
1E
100
AcDbEntity
  8
1
  6
Continuous
 62
     7
100
AcDbLine
 10
818.0
 20
291.0
 30
0.0
 11
806.0
 21
291.0
 31
0.0
  0
LINE
  5
F7
330
1E
100
AcDbEntity
  8
1
  6
Continuous
 62
     7
100
AcDbLine
 10
810.25
 20
280.25
 30
0.0
 11
810.25
 21
276.75
 31
0.0
  0
LINE
  5
F8
330
1E
100
AcDbEntity
  8
1
  6
Continuous
 62
     7
100
AcDbLine
 10
810.25
 20
276.75
 30
0.0
 11
813.7499999999999
 21
276.75
 31
0.0
  0
LINE
  5
F9
330
1E
100
AcDbEntity
  8
1
  6
Continuous
 62
     7
100
AcDbLine
 10
813.7499999999999
 20
276.75
 30
0.0
 11
813.7499999999999
 21
280.25
 31
0.0
  0
LINE
  5
FA
330
1E
100
AcDbEntity
  8
1
  6
Continuous
 62
     7
100
AcDbLine
 10
813.7499999999999
 20
280.25
 30
0.0
 11
810.25
 21
280.25
 31
0.0
  0
LINE
  5
FB
330
1E
100
AcDbEntity
  8
1
  6
Continuous
 62
     7
100
AcDbLine
 10
810.25
 20
275.2499999999999
 30
0.0
 11
810.25
 21
271.75
 31
0.0
  0
LINE
  5
FC
330
1E
100
AcDbEntity
  8
1
  6
Continuous
 62
     7
100
AcDbLine
 10
810.25
 20
271.75
 30
0.0
 11
813.7499999999999
 21
271.75
 31
0.0
  0
LINE
  5
FD
330
1E
100
AcDbEntity
  8
1
  6
Continuous
 62
     7
100
AcDbLine
 10
813.7499999999999
 20
271.75
 30
0.0
 11
813.7499999999999
 21
275.2499999999999
 31
0.0
  0
LINE
  5
FE
330
1E
100
AcDbEntity
  8
1
  6
Continuous
 62
     7
100
AcDbLine
 10
813.7499999999999
 20
275.2499999999999
 30
0.0
 11
810.25
 21
275.2499999999999
 31
0.0
  0
LINE
  5
FF
330
1E
100
AcDbEntity
  8
1
  6
Continuous
 62
     7
100
AcDbLine
 10
810.25
 20
270.25
 30
0.0
 11
810.25
 21
266.7499999999999
 31
0.0
  0
LINE
  5
100
330
1E
100
AcDbEntity
  8
1
  6
Continuous
 62
     7
100
AcDbLine
 10
810.25
 20
266.7499999999999
 30
0.0
 11
813.7499999999999
 21
266.7499999999999
 31
0.0
  0
LINE
  5
101
330
1E
100
AcDbEntity
  8
1
  6
Continuous
 62
     7
100
AcDbLine
 10
813.7499999999999
 20
266.7499999999999
 30
0.0
 11
813.7499999999999
 21
270.25
 31
0.0
  0
LINE
  5
102
330
1E
100
AcDbEntity
  8
1
  6
Continuous
 62
     7
100
AcDbLine
 10
813.7499999999999
 20
270.25
 30
0.0
 11
810.25
 21
270.25
 31
0.0
  0
LINE
  5
103
330
1E
100
AcDbEntity
  8
1
  6
Continuous
 62
     7
100
AcDbLine
 10
806.0
 20
280.25
 30
0.0
 11
808.75
 21
280.25
 31
0.0
  0
LINE
  5
104
330
1E
100
AcDbEntity
  8
1
  6
Continuous
 62
     7
100
AcDbLine
 10
808.75
 20
280.25
 30
0.0
 11
808.75
 21
276.75
 31
0.0
  0
LINE
  5
105
330
1E
100
AcDbEntity
  8
1
  6
Continuous
 62
     7
100
AcDbLine
 10
808.75
 20
276.75
 30
0.0
 11
806.0
 21
276.75
 31
0.0
  0
LINE
  5
106
330
1E
100
AcDbEntity
  8
1
  6
Continuous
 62
     7
100
AcDbLine
 10
806.0
 20
275.2499999999999
 30
0.0
 11
808.75
 21
275.2499999999999
 31
0.0
  0
LINE
  5
107
330
1E
100
AcDbEntity
  8
1
  6
Continuous
 62
     7
100
AcDbLine
 10
808.75
 20
275.2499999999999
 30
0.0
 11
808.75
 21
271.75
 31
0.0
  0
LINE
  5
108
330
1E
100
AcDbEntity
  8
1
  6
Continuous
 62
     7
100
AcDbLine
 10
808.75
 20
271.75
 30
0.0
 11
806.0
 21
271.75
 31
0.0
  0
LINE
  5
109
330
1E
100
AcDbEntity
  8
1
  6
Continuous
 62
     7
100
AcDbLine
 10
806.0
 20
270.25
 30
0.0
 11
808.75
 21
270.25
 31
0.0
  0
LINE
  5
10A
330
1E
100
AcDbEntity
  8
1
  6
Continuous
 62
     7
100
AcDbLine
 10
808.75
 20
270.25
 30
0.0
 11
808.75
 21
266.7499999999999
 31
0.0
  0
LINE
  5
10B
330
1E
100
AcDbEntity
  8
1
  6
Continuous
 62
     7
100
AcDbLine
 10
808.75
 20
266.7499999999999
 30
0.0
 11
806.0
 21
266.7499999999999
 31
0.0
  0
LINE
  5
10C
330
1E
100
AcDbEntity
  8
1
  6
Continuous
 62
     7
100
AcDbLine
 10
818.0
 20
280.25
 30
0.0
 11
815.2499999999999
 21
280.25
 31
0.0
  0
LINE
  5
10D
330
1E
100
AcDbEntity
  8
1
  6
Continuous
 62
     7
100
AcDbLine
 10
815.2499999999999
 20
280.25
 30
0.0
 11
815.2499999999999
 21
276.75
 31
0.0
  0
LINE
  5
10E
330
1E
100
AcDbEntity
  8
1
  6
Continuous
 62
     7
100
AcDbLine
 10
815.2499999999999
 20
276.75
 30
0.0
 11
818.0
 21
276.75
 31
0.0
  0
LINE
  5
10F
330
1E
100
AcDbEntity
  8
1
  6
Continuous
 62
     7
100
AcDbLine
 10
818.0
 20
275.2499999999999
 30
0.0
 11
815.2499999999999
 21
275.2499999999999
 31
0.0
  0
LINE
  5
110
330
1E
100
AcDbEntity
  8
1
  6
Continuous
 62
     7
100
AcDbLine
 10
815.2499999999999
 20
275.2499999999999
 30
0.0
 11
815.2499999999999
 21
271.75
 31
0.0
  0
LINE
  5
111
330
1E
100
AcDbEntity
  8
1
  6
Continuous
 62
     7
100
AcDbLine
 10
815.2499999999999
 20
271.75
 30
0.0
 11
818.0
 21
271.75
 31
0.0
  0
LINE
  5
112
330
1E
100
AcDbEntity
  8
1
  6
Continuous
 62
     7
100
AcDbLine
 10
818.0
 20
270.25
 30
0.0
 11
815.2499999999999
 21
270.25
 31
0.0
  0
LINE
  5
113
330
1E
100
AcDbEntity
  8
1
  6
Continuous
 62
     7
100
AcDbLine
 10
815.2499999999999
 20
270.25
 30
0.0
 11
815.2499999999999
 21
266.7499999999999
 31
0.0
  0
LINE
  5
114
330
1E
100
AcDbEntity
  8
1
  6
Continuous
 62
     7
100
AcDbLine
 10
815.2499999999999
 20
266.7499999999999
 30
0.0
 11
818.0
 21
266.7499999999999
 31
0.0
  0
LINE
  5
115
330
1E
100
AcDbEntity
  8
1
  6
Continuous
 62
     7
100
AcDbLine
 10
810.25
 20
281.7499999999999
 30
0.0
 11
810.25
 21
285.25
 31
0.0
  0
LINE
  5
116
330
1E
100
AcDbEntity
  8
1
  6
Continuous
 62
     7
100
AcDbLine
 10
810.25
 20
285.25
 30
0.0
 11
813.7499999999999
 21
285.25
 31
0.0
  0
LINE
  5
117
330
1E
100
AcDbEntity
  8
1
  6
Continuous
 62
     7
100
AcDbLine
 10
813.7499999999999
 20
285.25
 30
0.0
 11
813.7499999999999
 21
281.7499999999999
 31
0.0
  0
LINE
  5
118
330
1E
100
AcDbEntity
  8
1
  6
Continuous
 62
     7
100
AcDbLine
 10
813.7499999999999
 20
281.7499999999999
 30
0.0
 11
810.25
 21
281.7499999999999
 31
0.0
  0
LINE
  5
119
330
1E
100
AcDbEntity
  8
1
  6
Continuous
 62
     7
100
AcDbLine
 10
810.25
 20
286.75
 30
0.0
 11
810.25
 21
290.2499999999999
 31
0.0
  0
LINE
  5
11A
330
1E
100
AcDbEntity
  8
1
  6
Continuous
 62
     7
100
AcDbLine
 10
810.25
 20
290.2499999999999
 30
0.0
 11
813.7499999999999
 21
290.2499999999999
 31
0.0
  0
LINE
  5
11B
330
1E
100
AcDbEntity
  8
1
  6
Continuous
 62
     7
100
AcDbLine
 10
813.7499999999999
 20
290.2499999999999
 30
0.0
 11
813.7499999999999
 21
286.75
 31
0.0
  0
LINE
  5
11C
330
1E
100
AcDbEntity
  8
1
  6
Continuous
 62
     7
100
AcDbLine
 10
813.7499999999999
 20
286.75
 30
0.0
 11
810.25
 21
286.75
 31
0.0
  0
LINE
  5
11D
330
1E
100
AcDbEntity
  8
1
  6
Continuous
 62
     7
100
AcDbLine
 10
806.0
 20
281.7499999999999
 30
0.0
 11
808.75
 21
281.7499999999999
 31
0.0
  0
LINE
  5
11E
330
1E
100
AcDbEntity
  8
1
  6
Continuous
 62
     7
100
AcDbLine
 10
808.75
 20
281.7499999999999
 30
0.0
 11
808.75
 21
285.25
 31
0.0
  0
LINE
  5
11F
330
1E
100
AcDbEntity
  8
1
  6
Continuous
 62
     7
100
AcDbLine
 10
808.75
 20
285.25
 30
0.0
 11
806.0
 21
285.25
 31
0.0
  0
LINE
  5
120
330
1E
100
AcDbEntity
  8
1
  6
Continuous
 62
     7
100
AcDbLine
 10
806.0
 20
286.75
 30
0.0
 11
808.75
 21
286.75
 31
0.0
  0
LINE
  5
121
330
1E
100
AcDbEntity
  8
1
  6
Continuous
 62
     7
100
AcDbLine
 10
808.75
 20
286.75
 30
0.0
 11
808.75
 21
290.2499999999999
 31
0.0
  0
LINE
  5
122
330
1E
100
AcDbEntity
  8
1
  6
Continuous
 62
     7
100
AcDbLine
 10
808.75
 20
290.2499999999999
 30
0.0
 11
806.0
 21
290.2499999999999
 31
0.0
  0
LINE
  5
123
330
1E
100
AcDbEntity
  8
1
  6
Continuous
 62
     7
100
AcDbLine
 10
818.0
 20
281.7499999999999
 30
0.0
 11
815.2499999999999
 21
281.7499999999999
 31
0.0
  0
LINE
  5
124
330
1E
100
AcDbEntity
  8
1
  6
Continuous
 62
     7
100
AcDbLine
 10
815.2499999999999
 20
281.7499999999999
 30
0.0
 11
815.2499999999999
 21
285.25
 31
0.0
  0
LINE
  5
125
330
1E
100
AcDbEntity
  8
1
  6
Continuous
 62
     7
100
AcDbLine
 10
815.2499999999999
 20
285.25
 30
0.0
 11
818.0
 21
285.25
 31
0.0
  0
LINE
  5
126
330
1E
100
AcDbEntity
  8
1
  6
Continuous
 62
     7
100
AcDbLine
 10
818.0
 20
286.75
 30
0.0
 11
815.2499999999999
 21
286.75
 31
0.0
  0
LINE
  5
127
330
1E
100
AcDbEntity
  8
1
  6
Continuous
 62
     7
100
AcDbLine
 10
815.2499999999999
 20
286.75
 30
0.0
 11
815.2499999999999
 21
290.2499999999999
 31
0.0
  0
LINE
  5
128
330
1E
100
AcDbEntity
  8
1
  6
Continuous
 62
     7
100
AcDbLine
 10
815.2499999999999
 20
290.2499999999999
 30
0.0
 11
818.0
 21
290.2499999999999
 31
0.0
  0
LINE
  5
129
330
1E
100
AcDbEntity
  8
1
  6
Continuous
 62
     7
100
AcDbLine
 10
806.0
 20
234.0
 30
0.0
 11
806.0
 21
209.0
 31
0.0
  0
LINE
  5
12A
330
1E
100
AcDbEntity
  8
1
  6
Continuous
 62
     7
100
AcDbLine
 10
806.0
 20
209.0
 30
0.0
 11
818.0
 21
209.0
 31
0.0
  0
LINE
  5
12B
330
1E
100
AcDbEntity
  8
1
  6
Continuous
 62
     7
100
AcDbLine
 10
818.0
 20
209.0
 30
0.0
 11
818.0
 21
234.0
 31
0.0
  0
LINE
  5
12C
330
1E
100
AcDbEntity
  8
1
  6
Continuous
 62
     7
100
AcDbLine
 10
818.0
 20
234.0
 30
0.0
 11
806.0
 21
234.0
 31
0.0
  0
LINE
  5
12D
330
1E
100
AcDbEntity
  8
1
  6
Continuous
 62
     7
100
AcDbLine
 10
810.25
 20
223.2499999999999
 30
0.0
 11
810.25
 21
219.75
 31
0.0
  0
LINE
  5
12E
330
1E
100
AcDbEntity
  8
1
  6
Continuous
 62
     7
100
AcDbLine
 10
810.25
 20
219.75
 30
0.0
 11
813.7499999999999
 21
219.75
 31
0.0
  0
LINE
  5
12F
330
1E
100
AcDbEntity
  8
1
  6
Continuous
 62
     7
100
AcDbLine
 10
813.7499999999999
 20
219.75
 30
0.0
 11
813.7499999999999
 21
223.2499999999999
 31
0.0
  0
LINE
  5
130
330
1E
100
AcDbEntity
  8
1
  6
Continuous
 62
     7
100
AcDbLine
 10
813.7499999999999
 20
223.2499999999999
 30
0.0
 11
810.25
 21
223.2499999999999
 31
0.0
  0
LINE
  5
131
330
1E
100
AcDbEntity
  8
1
  6
Continuous
 62
     7
100
AcDbLine
 10
810.25
 20
218.25
 30
0.0
 11
810.25
 21
214.7499999999999
 31
0.0
  0
LINE
  5
132
330
1E
100
AcDbEntity
  8
1
  6
Continuous
 62
     7
100
AcDbLine
 10
810.25
 20
214.7499999999999
 30
0.0
 11
813.7499999999999
 21
214.7499999999999
 31
0.0
  0
LINE
  5
133
330
1E
100
AcDbEntity
  8
1
  6
Continuous
 62
     7
100
AcDbLine
 10
813.7499999999999
 20
214.7499999999999
 30
0.0
 11
813.7499999999999
 21
218.25
 31
0.0
  0
LINE
  5
134
330
1E
100
AcDbEntity
  8
1
  6
Continuous
 62
     7
100
AcDbLine
 10
813.7499999999999
 20
218.25
 30
0.0
 11
810.25
 21
218.25
 31
0.0
  0
LINE
  5
135
330
1E
100
AcDbEntity
  8
1
  6
Continuous
 62
     7
100
AcDbLine
 10
810.25
 20
213.2499999999999
 30
0.0
 11
810.25
 21
209.75
 31
0.0
  0
LINE
  5
136
330
1E
100
AcDbEntity
  8
1
  6
Continuous
 62
     7
100
AcDbLine
 10
810.25
 20
209.75
 30
0.0
 11
813.7499999999999
 21
209.75
 31
0.0
  0
LINE
  5
137
330
1E
100
AcDbEntity
  8
1
  6
Continuous
 62
     7
100
AcDbLine
 10
813.7499999999999
 20
209.75
 30
0.0
 11
813.7499999999999
 21
213.2499999999999
 31
0.0
  0
LINE
  5
138
330
1E
100
AcDbEntity
  8
1
  6
Continuous
 62
     7
100
AcDbLine
 10
813.7499999999999
 20
213.2499999999999
 30
0.0
 11
810.25
 21
213.2499999999999
 31
0.0
  0
LINE
  5
139
330
1E
100
AcDbEntity
  8
1
  6
Continuous
 62
     7
100
AcDbLine
 10
806.0
 20
223.2499999999999
 30
0.0
 11
808.75
 21
223.2499999999999
 31
0.0
  0
LINE
  5
13A
330
1E
100
AcDbEntity
  8
1
  6
Continuous
 62
     7
100
AcDbLine
 10
808.75
 20
223.2499999999999
 30
0.0
 11
808.75
 21
219.75
 31
0.0
  0
LINE
  5
13B
330
1E
100
AcDbEntity
  8
1
  6
Continuous
 62
     7
100
AcDbLine
 10
808.75
 20
219.75
 30
0.0
 11
806.0
 21
219.75
 31
0.0
  0
LINE
  5
13C
330
1E
100
AcDbEntity
  8
1
  6
Continuous
 62
     7
100
AcDbLine
 10
806.0
 20
218.25
 30
0.0
 11
808.75
 21
218.25
 31
0.0
  0
LINE
  5
13D
330
1E
100
AcDbEntity
  8
1
  6
Continuous
 62
     7
100
AcDbLine
 10
808.75
 20
218.25
 30
0.0
 11
808.75
 21
214.7499999999999
 31
0.0
  0
LINE
  5
13E
330
1E
100
AcDbEntity
  8
1
  6
Continuous
 62
     7
100
AcDbLine
 10
808.75
 20
214.7499999999999
 30
0.0
 11
806.0
 21
214.7499999999999
 31
0.0
  0
LINE
  5
13F
330
1E
100
AcDbEntity
  8
1
  6
Continuous
 62
     7
100
AcDbLine
 10
806.0
 20
213.2499999999999
 30
0.0
 11
808.75
 21
213.2499999999999
 31
0.0
  0
LINE
  5
140
330
1E
100
AcDbEntity
  8
1
  6
Continuous
 62
     7
100
AcDbLine
 10
808.75
 20
213.2499999999999
 30
0.0
 11
808.75
 21
209.75
 31
0.0
  0
LINE
  5
141
330
1E
100
AcDbEntity
  8
1
  6
Continuous
 62
     7
100
AcDbLine
 10
808.75
 20
209.75
 30
0.0
 11
806.0
 21
209.75
 31
0.0
  0
LINE
  5
142
330
1E
100
AcDbEntity
  8
1
  6
Continuous
 62
     7
100
AcDbLine
 10
818.0
 20
223.2499999999999
 30
0.0
 11
815.2499999999999
 21
223.2499999999999
 31
0.0
  0
LINE
  5
143
330
1E
100
AcDbEntity
  8
1
  6
Continuous
 62
     7
100
AcDbLine
 10
815.2499999999999
 20
223.2499999999999
 30
0.0
 11
815.2499999999999
 21
219.75
 31
0.0
  0
LINE
  5
144
330
1E
100
AcDbEntity
  8
1
  6
Continuous
 62
     7
100
AcDbLine
 10
815.2499999999999
 20
219.75
 30
0.0
 11
818.0
 21
219.75
 31
0.0
  0
LINE
  5
145
330
1E
100
AcDbEntity
  8
1
  6
Continuous
 62
     7
100
AcDbLine
 10
818.0
 20
218.25
 30
0.0
 11
815.2499999999999
 21
218.25
 31
0.0
  0
LINE
  5
146
330
1E
100
AcDbEntity
  8
1
  6
Continuous
 62
     7
100
AcDbLine
 10
815.2499999999999
 20
218.25
 30
0.0
 11
815.2499999999999
 21
214.7499999999999
 31
0.0
  0
LINE
  5
147
330
1E
100
AcDbEntity
  8
1
  6
Continuous
 62
     7
100
AcDbLine
 10
815.2499999999999
 20
214.7499999999999
 30
0.0
 11
818.0
 21
214.7499999999999
 31
0.0
  0
LINE
  5
148
330
1E
100
AcDbEntity
  8
1
  6
Continuous
 62
     7
100
AcDbLine
 10
818.0
 20
213.2499999999999
 30
0.0
 11
815.2499999999999
 21
213.2499999999999
 31
0.0
  0
LINE
  5
149
330
1E
100
AcDbEntity
  8
1
  6
Continuous
 62
     7
100
AcDbLine
 10
815.2499999999999
 20
213.2499999999999
 30
0.0
 11
815.2499999999999
 21
209.75
 31
0.0
  0
LINE
  5
14A
330
1E
100
AcDbEntity
  8
1
  6
Continuous
 62
     7
100
AcDbLine
 10
815.2499999999999
 20
209.75
 30
0.0
 11
818.0
 21
209.75
 31
0.0
  0
LINE
  5
14B
330
1E
100
AcDbEntity
  8
1
  6
Continuous
 62
     7
100
AcDbLine
 10
810.25
 20
224.75
 30
0.0
 11
810.25
 21
228.25
 31
0.0
  0
LINE
  5
14C
330
1E
100
AcDbEntity
  8
1
  6
Continuous
 62
     7
100
AcDbLine
 10
810.25
 20
228.25
 30
0.0
 11
813.7499999999999
 21
228.25
 31
0.0
  0
LINE
  5
14D
330
1E
100
AcDbEntity
  8
1
  6
Continuous
 62
     7
100
AcDbLine
 10
813.7499999999999
 20
228.25
 30
0.0
 11
813.7499999999999
 21
224.75
 31
0.0
  0
LINE
  5
14E
330
1E
100
AcDbEntity
  8
1
  6
Continuous
 62
     7
100
AcDbLine
 10
813.7499999999999
 20
224.75
 30
0.0
 11
810.25
 21
224.75
 31
0.0
  0
LINE
  5
14F
330
1E
100
AcDbEntity
  8
1
  6
Continuous
 62
     7
100
AcDbLine
 10
810.25
 20
229.7499999999999
 30
0.0
 11
810.25
 21
233.25
 31
0.0
  0
LINE
  5
150
330
1E
100
AcDbEntity
  8
1
  6
Continuous
 62
     7
100
AcDbLine
 10
810.25
 20
233.25
 30
0.0
 11
813.7499999999999
 21
233.25
 31
0.0
  0
LINE
  5
151
330
1E
100
AcDbEntity
  8
1
  6
Continuous
 62
     7
100
AcDbLine
 10
813.7499999999999
 20
233.25
 30
0.0
 11
813.7499999999999
 21
229.7499999999999
 31
0.0
  0
LINE
  5
152
330
1E
100
AcDbEntity
  8
1
  6
Continuous
 62
     7
100
AcDbLine
 10
813.7499999999999
 20
229.7499999999999
 30
0.0
 11
810.25
 21
229.7499999999999
 31
0.0
  0
LINE
  5
153
330
1E
100
AcDbEntity
  8
1
  6
Continuous
 62
     7
100
AcDbLine
 10
806.0
 20
224.75
 30
0.0
 11
808.75
 21
224.75
 31
0.0
  0
LINE
  5
154
330
1E
100
AcDbEntity
  8
1
  6
Continuous
 62
     7
100
AcDbLine
 10
808.75
 20
224.75
 30
0.0
 11
808.75
 21
228.25
 31
0.0
  0
LINE
  5
155
330
1E
100
AcDbEntity
  8
1
  6
Continuous
 62
     7
100
AcDbLine
 10
808.75
 20
228.25
 30
0.0
 11
806.0
 21
228.25
 31
0.0
  0
LINE
  5
156
330
1E
100
AcDbEntity
  8
1
  6
Continuous
 62
     7
100
AcDbLine
 10
806.0
 20
229.7499999999999
 30
0.0
 11
808.75
 21
229.7499999999999
 31
0.0
  0
LINE
  5
157
330
1E
100
AcDbEntity
  8
1
  6
Continuous
 62
     7
100
AcDbLine
 10
808.75
 20
229.7499999999999
 30
0.0
 11
808.75
 21
233.25
 31
0.0
  0
LINE
  5
158
330
1E
100
AcDbEntity
  8
1
  6
Continuous
 62
     7
100
AcDbLine
 10
808.75
 20
233.25
 30
0.0
 11
806.0
 21
233.25
 31
0.0
  0
LINE
  5
159
330
1E
100
AcDbEntity
  8
1
  6
Continuous
 62
     7
100
AcDbLine
 10
818.0
 20
224.75
 30
0.0
 11
815.2499999999999
 21
224.75
 31
0.0
  0
LINE
  5
15A
330
1E
100
AcDbEntity
  8
1
  6
Continuous
 62
     7
100
AcDbLine
 10
815.2499999999999
 20
224.75
 30
0.0
 11
815.2499999999999
 21
228.25
 31
0.0
  0
LINE
  5
15B
330
1E
100
AcDbEntity
  8
1
  6
Continuous
 62
     7
100
AcDbLine
 10
815.2499999999999
 20
228.25
 30
0.0
 11
818.0
 21
228.25
 31
0.0
  0
LINE
  5
15C
330
1E
100
AcDbEntity
  8
1
  6
Continuous
 62
     7
100
AcDbLine
 10
818.0
 20
229.7499999999999
 30
0.0
 11
815.2499999999999
 21
229.7499999999999
 31
0.0
  0
LINE
  5
15D
330
1E
100
AcDbEntity
  8
1
  6
Continuous
 62
     7
100
AcDbLine
 10
815.2499999999999
 20
229.7499999999999
 30
0.0
 11
815.2499999999999
 21
233.25
 31
0.0
  0
LINE
  5
15E
330
1E
100
AcDbEntity
  8
1
  6
Continuous
 62
     7
100
AcDbLine
 10
815.2499999999999
 20
233.25
 30
0.0
 11
818.0
 21
233.25
 31
0.0
  0
LINE
  5
15F
330
1E
100
AcDbEntity
  8
1
  6
Continuous
 62
     7
100
AcDbLine
 10
802.0
 20
315.5
 30
0.0
 11
799.0
 21
315.5
 31
0.0
  0
LINE
  5
160
330
1E
100
AcDbEntity
  8
1
  6
Continuous
 62
     7
100
AcDbLine
 10
799.0
 20
315.5
 30
0.0
 11
799.0
 21
184.4999999999999
 31
0.0
  0
LINE
  5
161
330
1E
100
AcDbEntity
  8
1
  6
Continuous
 62
     7
100
AcDbLine
 10
799.0
 20
184.4999999999999
 30
0.0
 11
802.0
 21
184.4999999999999
 31
0.0
  0
LINE
  5
162
330
1E
100
AcDbEntity
  8
1
  6
Continuous
 62
     7
100
AcDbLine
 10
822.0
 20
302.999999
 30
0.0
 11
822.0
 21
197.0000009999999
 31
0.0
  0
LINE
  5
163
330
1E
100
AcDbEntity
  8
1
  6
Continuous
 62
     7
100
AcDbLine
 10
802.0
 20
327.0
 30
0.0
 11
821.9999989999999
 21
303.0
 31
0.0
  0
LINE
  5
164
330
1E
100
AcDbEntity
  8
1
  6
Continuous
 62
     7
100
AcDbLine
 10
802.0
 20
173.0
 30
0.0
 11
822.0
 21
197.0
 31
0.0
  0
LINE
  5
165
330
1E
100
AcDbEntity
  8
1
  6
Continuous
 62
     7
100
AcDbLine
 10
806.0
 20
312.5
 30
0.0
 11
806.0
 21
304.0
 31
0.0
  0
LINE
  5
166
330
1E
100
AcDbEntity
  8
1
  6
Continuous
 62
     7
100
AcDbLine
 10
806.0
 20
304.0
 30
0.0
 11
821.166666
 21
304.0
 31
0.0
  0
LINE
  5
167
330
1E
100
AcDbEntity
  8
1
  6
Continuous
 62
     7
100
AcDbLine
 10
806.0
 20
187.5
 30
0.0
 11
806.0
 21
196.0
 31
0.0
  0
LINE
  5
168
330
1E
100
AcDbEntity
  8
1
  6
Continuous
 62
     7
100
AcDbLine
 10
806.0
 20
196.0
 30
0.0
 11
821.166666
 21
196.0
 31
0.0
  0
LINE
  5
169
330
1E
100
AcDbEntity
  8
1
  6
Continuous
 62
     7
100
AcDbLine
 10
802.0
 20
187.5
 30
0.0
 11
814.0833330000001
 21
187.5
 31
0.0
  0
LINE
  5
16A
330
1E
100
AcDbEntity
  8
1
  6
Continuous
 62
     7
100
AcDbLine
 10
802.0
 20
312.5
 30
0.0
 11
814.0833330000001
 21
312.5
 31
0.0
  0
LINE
  5
16B
330
1E
100
AcDbEntity
  8
1
  6
Continuous
 62
     7
100
AcDbLine
 10
822.0
 20
484.0
 30
0.0
 11
802.0
 21
507.5
 31
0.0
  0
LINE
  5
16C
330
1E
100
AcDbEntity
  8
1
  6
Continuous
 62
     7
100
AcDbLine
 10
802.0
 20
507.5
 30
0.0
 11
790.0
 21
507.5
 31
0.0
  0
LINE
  5
16D
330
1E
100
AcDbEntity
  8
1
  6
Continuous
 62
     7
100
AcDbLine
 10
790.0
 20
507.5
 30
0.0
 11
790.0
 21
432.0
 31
0.0
  0
LINE
  5
16E
330
1E
100
AcDbEntity
  8
1
  6
Continuous
 62
     7
100
AcDbLine
 10
790.0
 20
432.0
 30
0.0
 11
802.0
 21
432.0
 31
0.0
  0
LINE
  5
16F
330
1E
100
AcDbEntity
  8
1
  6
Continuous
 62
     7
100
AcDbLine
 10
802.0
 20
432.0
 30
0.0
 11
802.0
 21
397.0
 31
0.0
  0
LINE
  5
170
330
1E
100
AcDbEntity
  8
1
  6
Continuous
 62
     7
100
AcDbLine
 10
802.0
 20
397.0
 30
0.0
 11
799.0
 21
397.0
 31
0.0
  0
LINE
  5
171
330
1E
100
AcDbEntity
  8
1
  6
Continuous
 62
     7
100
AcDbLine
 10
799.0
 20
397.0
 30
0.0
 11
799.0
 21
432.0
 31
0.0
  0
LINE
  5
172
330
1E
100
AcDbEntity
  8
1
  6
Continuous
 62
     7
100
AcDbLine
 10
440.0
 20
435.0
 30
0.0
 11
790.0
 21
435.0
 31
0.0
  0
LINE
  5
173
330
1E
100
AcDbEntity
  8
1
  6
Continuous
 62
     7
100
AcDbLine
 10
435.0
 20
302.999999
 30
0.0
 11
435.0
 21
197.0000009999999
 31
0.0
  0
LINE
  5
174
330
1E
100
AcDbEntity
  8
1
  6
Continuous
 62
     7
100
AcDbLine
 10
445.916667
 20
315.5
 30
0.0
 11
445.916667
 21
184.4999999999999
 31
0.0
  0
LINE
  5
175
330
1E
100
AcDbEntity
  8
1
  6
Continuous
 62
     7
100
AcDbLine
 10
445.916667
 20
184.4999999999999
 30
0.0
 11
448.916667
 21
184.4999999999999
 31
0.0
  0
LINE
  5
176
330
1E
100
AcDbEntity
  8
1
  6
Continuous
 62
     7
100
AcDbLine
 10
448.916667
 20
184.4999999999999
 30
0.0
 11
448.916667
 21
315.5
 31
0.0
  0
LINE
  5
177
330
1E
100
AcDbEntity
  8
1
  6
Continuous
 62
     7
100
AcDbLine
 10
448.916667
 20
315.5
 30
0.0
 11
445.916667
 21
315.5
 31
0.0
  0
LINE
  5
178
330
1E
100
AcDbEntity
  8
1
  6
Continuous
 62
     7
100
AcDbLine
 10
442.9166659999999
 20
312.5
 30
0.0
 11
445.916667
 21
312.5
 31
0.0
  0
LINE
  5
179
330
1E
100
AcDbEntity
  8
1
  6
Continuous
 62
     7
100
AcDbLine
 10
442.9166669999999
 20
187.5
 30
0.0
 11
445.916667
 21
187.5
 31
0.0
  0
LINE
  5
17A
330
1E
100
AcDbEntity
  8
1
  6
Continuous
 62
     7
100
AcDbLine
 10
448.916667
 20
400.0
 30
0.0
 11
799.0
 21
400.0
 31
0.0
  0
LINE
  5
17B
330
1E
100
AcDbEntity
  8
1
  6
Continuous
 62
     7
100
AcDbLine
 10
445.916667
 20
435.0
 30
0.0
 11
445.916667
 21
397.0
 31
0.0
  0
LINE
  5
17C
330
1E
100
AcDbEntity
  8
1
  6
Continuous
 62
     7
100
AcDbLine
 10
445.916667
 20
397.0
 30
0.0
 11
448.916667
 21
397.0
 31
0.0
  0
LINE
  5
17D
330
1E
100
AcDbEntity
  8
1
  6
Continuous
 62
     7
100
AcDbLine
 10
448.916667
 20
397.0
 30
0.0
 11
448.916667
 21
435.0
 31
0.0
  0
LINE
  5
17E
330
1E
100
AcDbEntity
  8
1
  6
Continuous
 62
     7
100
AcDbLine
 10
442.9166659999999
 20
400.0
 30
0.0
 11
445.916667
 21
400.0
 31
0.0
  0
LINE
  5
17F
330
1E
100
AcDbEntity
  8
1
  6
Continuous
 62
     7
100
AcDbLine
 10
385.0
 20
491.0
 30
0.0
 11
440.0
 21
435.0
 31
0.0
  0
LINE
  5
180
330
1E
100
AcDbEntity
  8
1
  6
Continuous
 62
     7
100
AcDbLine
 10
385.0
 20
491.0
 30
0.0
 11
385.0
 21
504.0
 31
0.0
  0
LINE
  5
181
330
1E
100
AcDbEntity
  8
1
  6
Continuous
 62
     7
100
AcDbLine
 10
385.0
 20
504.0
 30
0.0
 11
790.0
 21
504.0
 31
0.0
  0
LINE
  5
182
330
1E
100
AcDbEntity
  8
1
  6
Continuous
 62
     7
100
AcDbLine
 10
435.0
 20
409.4999999999999
 30
0.0
 11
435.0
 21
440.0909089999999
 31
0.0
  0
LINE
  5
183
330
1E
100
AcDbEntity
  8
1
  6
Continuous
 62
     7
100
AcDbLine
 10
433.1249999999999
 20
442.0
 30
0.0
 11
790.0
 21
442.0
 31
0.0
  0
LINE
  5
184
330
1E
100
AcDbEntity
  8
1
  6
Continuous
 62
     7
100
AcDbLine
 10
790.0
 20
462.0
 30
0.0
 11
413.482143
 21
462.0
 31
0.0
  0
LINE
  5
185
330
1E
100
AcDbEntity
  8
1
  6
Continuous
 62
     7
100
AcDbLine
 10
321.2499999999999
 20
435.0
 30
0.0
 11
321.2499999999999
 21
442.0
 31
0.0
  0
LINE
  5
186
330
1E
100
AcDbEntity
  8
1
  6
Continuous
 62
     7
100
AcDbLine
 10
321.2499999999999
 20
442.0
 30
0.0
 11
322.0
 21
442.0
 31
0.0
  0
LINE
  5
187
330
1E
100
AcDbEntity
  8
1
  6
Continuous
 62
     7
100
AcDbLine
 10
322.0
 20
442.0
 30
0.0
 11
322.0
 21
462.0
 31
0.0
  0
LINE
  5
188
330
1E
100
AcDbEntity
  8
1
  6
Continuous
 62
     7
100
AcDbLine
 10
322.0
 20
462.0
 30
0.0
 11
321.2499999999999
 21
462.0
 31
0.0
  0
LINE
  5
189
330
1E
100
AcDbEntity
  8
1
  6
Continuous
 62
     7
100
AcDbLine
 10
178.75
 20
462.0
 30
0.0
 11
178.0
 21
462.0
 31
0.0
  0
LINE
  5
18A
330
1E
100
AcDbEntity
  8
1
  6
Continuous
 62
     7
100
AcDbLine
 10
178.0
 20
462.0
 30
0.0
 11
178.0
 21
442.0
 31
0.0
  0
LINE
  5
18B
330
1E
100
AcDbEntity
  8
1
  6
Continuous
 62
     7
100
AcDbLine
 10
178.0
 20
442.0
 30
0.0
 11
178.75
 21
442.0
 31
0.0
  0
LINE
  5
18C
330
1E
100
AcDbEntity
  8
1
  6
Continuous
 62
     7
100
AcDbLine
 10
178.75
 20
442.0
 30
0.0
 11
178.75
 21
435.0
 31
0.0
  0
LINE
  5
18D
330
1E
100
AcDbEntity
  8
1
  6
Continuous
 62
     7
100
AcDbLine
 10
178.75
 20
435.0
 30
0.0
 11
180.75
 21
435.0
 31
0.0
  0
LINE
  5
18E
330
1E
100
AcDbEntity
  8
1
  6
Continuous
 62
     7
100
AcDbLine
 10
180.75
 20
435.0
 30
0.0
 11
180.75
 21
458.4999999999999
 31
0.0
  0
LINE
  5
18F
330
1E
100
AcDbEntity
  8
1
  6
Continuous
 62
     7
100
AcDbLine
 10
180.75
 20
458.4999999999999
 30
0.0
 11
182.75
 21
458.4999999999999
 31
0.0
  0
LINE
  5
190
330
1E
100
AcDbEntity
  8
1
  6
Continuous
 62
     7
100
AcDbLine
 10
182.75
 20
458.4999999999999
 30
0.0
 11
182.75
 21
460.5
 31
0.0
  0
LINE
  5
191
330
1E
100
AcDbEntity
  8
1
  6
Continuous
 62
     7
100
AcDbLine
 10
182.75
 20
460.5
 30
0.0
 11
180.75
 21
460.5
 31
0.0
  0
LINE
  5
192
330
1E
100
AcDbEntity
  8
1
  6
Continuous
 62
     7
100
AcDbLine
 10
319.2499999999999
 20
460.5
 30
0.0
 11
317.2499999999999
 21
460.5
 31
0.0
  0
LINE
  5
193
330
1E
100
AcDbEntity
  8
1
  6
Continuous
 62
     7
100
AcDbLine
 10
317.2499999999999
 20
460.5
 30
0.0
 11
317.2499999999999
 21
458.4999999999999
 31
0.0
  0
LINE
  5
194
330
1E
100
AcDbEntity
  8
1
  6
Continuous
 62
     7
100
AcDbLine
 10
317.2499999999999
 20
458.4999999999999
 30
0.0
 11
319.2499999999999
 21
458.4999999999999
 31
0.0
  0
LINE
  5
195
330
1E
100
AcDbEntity
  8
1
  6
Continuous
 62
     7
100
AcDbLine
 10
319.2499999999999
 20
458.4999999999999
 30
0.0
 11
319.2499999999999
 21
435.0
 31
0.0
  0
LINE
  5
196
330
1E
100
AcDbEntity
  8
1
  6
Continuous
 62
     7
100
AcDbLine
 10
319.2499999999999
 20
435.0
 30
0.0
 11
321.2499999999999
 21
435.0
 31
0.0
  0
LINE
  5
197
330
1E
100
AcDbEntity
  8
1
  6
Continuous
 62
     7
100
AcDbLine
 10
448.916667
 20
315.5
 30
0.0
 11
799.0
 21
315.5
 31
0.0
  0
LINE
  5
198
330
1E
100
AcDbEntity
  8
1
  6
Continuous
 62
     7
100
AcDbLine
 10
448.916667
 20
312.5
 30
0.0
 11
799.0
 21
312.5
 31
0.0
  0
LINE
  5
199
330
1E
100
AcDbEntity
  8
1
  6
Continuous
 62
     7
100
AcDbLine
 10
448.916667
 20
187.5
 30
0.0
 11
799.0
 21
187.5
 31
0.0
  0
LINE
  5
19A
330
1E
100
AcDbEntity
  8
1
  6
Continuous
 62
     7
100
AcDbLine
 10
448.916667
 20
184.4999999999999
 30
0.0
 11
799.0
 21
184.4999999999999
 31
0.0
  0
LINE
  5
19B
330
1E
100
AcDbEntity
  8
1
  6
Continuous
 62
     7
100
AcDbLine
 10
433.1249999999999
 20
321.2499999999999
 30
0.0
 11
802.0
 21
321.2499999999999
 31
0.0
  0
LINE
  5
19C
330
1E
100
AcDbEntity
  8
1
  6
Continuous
 62
     7
100
AcDbLine
 10
802.0
 20
178.75
 30
0.0
 11
433.1249999999999
 21
178.75
 31
0.0
  0
LINE
  5
19D
330
1E
100
AcDbEntity
  8
1
  6
Continuous
 62
     7
100
AcDbLine
 10
433.1249999999999
 20
321.2499999999999
 30
0.0
 11
433.1249999999999
 21
322.0
 31
0.0
  0
LINE
  5
19E
330
1E
100
AcDbEntity
  8
1
  6
Continuous
 62
     7
100
AcDbLine
 10
413.482143
 20
321.2499999999999
 30
0.0
 11
413.482143
 21
322.0
 31
0.0
  0
LINE
  5
19F
330
1E
100
AcDbEntity
  8
1
  6
Continuous
 62
     7
100
AcDbLine
 10
413.482143
 20
322.0
 30
0.0
 11
802.0
 21
322.0
 31
0.0
  0
LINE
  5
1A0
330
1E
100
AcDbEntity
  8
1
  6
Continuous
 62
     7
100
AcDbLine
 10
433.1249999999999
 20
178.75
 30
0.0
 11
433.1249999999999
 21
178.0
 31
0.0
  0
LINE
  5
1A1
330
1E
100
AcDbEntity
  8
1
  6
Continuous
 62
     7
100
AcDbLine
 10
413.482143
 20
178.75
 30
0.0
 11
413.482143
 21
178.0
 31
0.0
  0
LINE
  5
1A2
330
1E
100
AcDbEntity
  8
1
  6
Continuous
 62
     7
100
AcDbLine
 10
413.482143
 20
178.0
 30
0.0
 11
802.0
 21
178.0
 31
0.0
  0
LINE
  5
1A3
330
1E
100
AcDbEntity
  8
1
  6
Continuous
 62
     7
100
AcDbLine
 10
413.482143
 20
321.2499999999999
 30
0.0
 11
385.0
 21
321.2499999999999
 31
0.0
  0
LINE
  5
1A4
330
1E
100
AcDbEntity
  8
1
  6
Continuous
 62
     7
100
AcDbLine
 10
385.0
 20
321.2499999999999
 30
0.0
 11
385.0
 21
178.75
 31
0.0
  0
LINE
  5
1A5
330
1E
100
AcDbEntity
  8
1
  6
Continuous
 62
     7
100
AcDbLine
 10
385.0
 20
178.75
 30
0.0
 11
413.482143
 21
178.75
 31
0.0
  0
LINE
  5
1A6
330
1E
100
AcDbEntity
  8
1
  6
Continuous
 62
     7
100
AcDbLine
 10
448.916667
 20
319.2499999999999
 30
0.0
 11
448.916667
 21
315.5
 31
0.0
  0
LINE
  5
1A7
330
1E
100
AcDbEntity
  8
1
  6
Continuous
 62
     7
100
AcDbLine
 10
448.916667
 20
180.75
 30
0.0
 11
448.916667
 21
184.4999999999999
 31
0.0
  0
LINE
  5
1A8
330
1E
100
AcDbEntity
  8
1
  6
Continuous
 62
     7
100
AcDbLine
 10
385.0
 20
180.75
 30
0.0
 11
414.955357
 21
180.75
 31
0.0
  0
LINE
  5
1A9
330
1E
100
AcDbEntity
  8
1
  6
Continuous
 62
     7
100
AcDbLine
 10
414.955357
 20
180.75
 30
0.0
 11
414.955357
 21
182.75
 31
0.0
  0
LINE
  5
1AA
330
1E
100
AcDbEntity
  8
1
  6
Continuous
 62
     7
100
AcDbLine
 10
414.955357
 20
182.75
 30
0.0
 11
448.916667
 21
182.75
 31
0.0
  0
LINE
  5
1AB
330
1E
100
AcDbEntity
  8
1
  6
Continuous
 62
     7
100
AcDbLine
 10
416.919643
 20
182.75
 30
0.0
 11
416.919643
 21
180.75
 31
0.0
  0
LINE
  5
1AC
330
1E
100
AcDbEntity
  8
1
  6
Continuous
 62
     7
100
AcDbLine
 10
416.919643
 20
180.75
 30
0.0
 11
802.0
 21
180.75
 31
0.0
  0
LINE
  5
1AD
330
1E
100
AcDbEntity
  8
1
  6
Continuous
 62
     7
100
AcDbLine
 10
385.0
 20
319.2499999999999
 30
0.0
 11
414.955357
 21
319.2499999999999
 31
0.0
  0
LINE
  5
1AE
330
1E
100
AcDbEntity
  8
1
  6
Continuous
 62
     7
100
AcDbLine
 10
414.955357
 20
319.2499999999999
 30
0.0
 11
414.955357
 21
317.2499999999999
 31
0.0
  0
LINE
  5
1AF
330
1E
100
AcDbEntity
  8
1
  6
Continuous
 62
     7
100
AcDbLine
 10
414.955357
 20
317.2499999999999
 30
0.0
 11
448.916667
 21
317.2499999999999
 31
0.0
  0
LINE
  5
1B0
330
1E
100
AcDbEntity
  8
1
  6
Continuous
 62
     7
100
AcDbLine
 10
416.919643
 20
317.2499999999999
 30
0.0
 11
416.919643
 21
319.2499999999999
 31
0.0
  0
LINE
  5
1B1
330
1E
100
AcDbEntity
  8
1
  6
Continuous
 62
     7
100
AcDbLine
 10
416.919643
 20
319.2499999999999
 30
0.0
 11
802.0
 21
319.2499999999999
 31
0.0
  0
LINE
  5
1B2
330
1E
100
AcDbEntity
  8
1
  6
Continuous
 62
     7
100
AcDbLine
 10
319.2499999999999
 20
491.0
 30
0.0
 11
321.2499999999999
 21
491.0
 31
0.0
  0
LINE
  5
1B3
330
1E
100
AcDbEntity
  8
1
  6
Continuous
 62
     7
100
AcDbLine
 10
178.75
 20
491.0
 30
0.0
 11
180.75
 21
491.0
 31
0.0
  0
ARC
  5
1B4
330
1E
100
AcDbEntity
  8
1
  6
Continuous
 62
     7
100
AcDbCircle
 10
216.0
 20
470.5
 30
0.0
 40
8.0
100
AcDbArc
 50
90.0
 51
180.0
  0
LINE
  5
1B5
330
1E
100
AcDbEntity
  8
1
  6
Continuous
 62
     7
100
AcDbLine
 10
284.0
 20
478.5
 30
0.0
 11
216.0
 21
478.5
 31
0.0
  0
ARC
  5
1B6
330
1E
100
AcDbEntity
  8
1
  6
Continuous
 62
     7
100
AcDbCircle
 10
284.0
 20
470.5
 30
0.0
 40
8.0
100
AcDbArc
 50
0.0
 51
90.0
  0
LINE
  5
1B7
330
1E
100
AcDbEntity
  8
1
  6
Continuous
 62
     7
100
AcDbLine
 10
292.0
 20
425.4999999999999
 30
0.0
 11
292.0
 21
470.5
 31
0.0
  0
ARC
  5
1B8
330
1E
100
AcDbEntity
  8
1
  6
Continuous
 62
     7
100
AcDbCircle
 10
284.0
 20
425.4999999999999
 30
0.0
 40
8.0
100
AcDbArc
 50
270.0
 51
0.0
  0
LINE
  5
1B9
330
1E
100
AcDbEntity
  8
1
  6
Continuous
 62
     7
100
AcDbLine
 10
216.0
 20
417.4999999999999
 30
0.0
 11
284.0
 21
417.4999999999999
 31
0.0
  0
LINE
  5
1BA
330
1E
100
AcDbEntity
  8
1
  6
Continuous
 62
     7
100
AcDbLine
 10
208.0
 20
470.5
 30
0.0
 11
208.0
 21
425.4999999999999
 31
0.0
  0
ARC
  5
1BB
330
1E
100
AcDbEntity
  8
1
  6
Continuous
 62
     7
100
AcDbCircle
 10
216.0
 20
425.4999999999999
 30
0.0
 40
8.0
100
AcDbArc
 50
180.0
 51
270.0
  0
ARC
  5
1BC
330
1E
100
AcDbEntity
  8
1
  6
Continuous
 62
     7
100
AcDbCircle
 10
201.0
 20
482.5
 30
0.0
 40
4.0
100
AcDbArc
 50
90.0
 51
180.0
  0
LINE
  5
1BD
330
1E
100
AcDbEntity
  8
1
  6
Continuous
 62
     7
100
AcDbLine
 10
299.0
 20
486.5
 30
0.0
 11
201.0
 21
486.5
 31
0.0
  0
ARC
  5
1BE
330
1E
100
AcDbEntity
  8
1
  6
Continuous
 62
     7
100
AcDbCircle
 10
299.0
 20
482.5
 30
0.0
 40
4.0
100
AcDbArc
 50
0.0
 51
90.0
  0
LINE
  5
1BF
330
1E
100
AcDbEntity
  8
1
  6
Continuous
 62
     7
100
AcDbLine
 10
303.0
 20
413.4999999999999
 30
0.0
 11
303.0
 21
482.5
 31
0.0
  0
ARC
  5
1C0
330
1E
100
AcDbEntity
  8
1
  6
Continuous
 62
     7
100
AcDbCircle
 10
299.0
 20
413.4999999999999
 30
0.0
 40
4.0
100
AcDbArc
 50
270.0
 51
0.0
  0
LINE
  5
1C1
330
1E
100
AcDbEntity
  8
1
  6
Continuous
 62
     7
100
AcDbLine
 10
201.0
 20
409.4999999999999
 30
0.0
 11
299.0
 21
409.4999999999999
 31
0.0
  0
LINE
  5
1C2
330
1E
100
AcDbEntity
  8
1
  6
Continuous
 62
     7
100
AcDbLine
 10
197.0
 20
482.5
 30
0.0
 11
197.0
 21
413.4999999999999
 31
0.0
  0
ARC
  5
1C3
330
1E
100
AcDbEntity
  8
1
  6
Continuous
 62
     7
100
AcDbCircle
 10
201.0
 20
413.4999999999999
 30
0.0
 40
4.0
100
AcDbArc
 50
180.0
 51
270.0
  0
ARC
  5
1C4
330
1E
100
AcDbEntity
  8
1
  6
Continuous
 62
     7
100
AcDbCircle
 10
191.5
 20
404.0
 30
0.0
 40
4.0
100
AcDbArc
 50
180.0
 51
270.0
  0
LINE
  5
1C5
330
1E
100
AcDbEntity
  8
1
  6
Continuous
 62
     7
100
AcDbLine
 10
191.5
 20
400.0
 30
0.0
 11
308.4999999999999
 21
400.0
 31
0.0
  0
ARC
  5
1C6
330
1E
100
AcDbEntity
  8
1
  6
Continuous
 62
     7
100
AcDbCircle
 10
308.4999999999999
 20
404.0
 30
0.0
 40
4.0
100
AcDbArc
 50
270.0
 51
0.0
  0
LINE
  5
1C7
330
1E
100
AcDbEntity
  8
1
  6
Continuous
 62
     7
100
AcDbLine
 10
312.5
 20
404.0
 30
0.0
 11
312.5
 21
492.0
 31
0.0
  0
ARC
  5
1C8
330
1E
100
AcDbEntity
  8
1
  6
Continuous
 62
     7
100
AcDbCircle
 10
308.4999999999999
 20
492.0
 30
0.0
 40
4.0
100
AcDbArc
 50
0.0
 51
90.0
  0
LINE
  5
1C9
330
1E
100
AcDbEntity
  8
1
  6
Continuous
 62
     7
100
AcDbLine
 10
308.4999999999999
 20
496.0
 30
0.0
 11
191.5
 21
496.0
 31
0.0
  0
LINE
  5
1CA
330
1E
100
AcDbEntity
  8
1
  6
Continuous
 62
     7
100
AcDbLine
 10
187.5
 20
492.0
 30
0.0
 11
187.5
 21
404.0
 31
0.0
  0
ARC
  5
1CB
330
1E
100
AcDbEntity
  8
1
  6
Continuous
 62
     7
100
AcDbCircle
 10
191.5
 20
492.0
 30
0.0
 40
4.0
100
AcDbArc
 50
90.0
 51
180.0
  0
ARC
  5
1CC
330
1E
100
AcDbEntity
  8
1
  6
Continuous
 62
     7
100
AcDbCircle
 10
191.5
 20
404.0
 30
0.0
 40
7.0
100
AcDbArc
 50
180.0
 51
270.0
  0
LINE
  5
1CD
330
1E
100
AcDbEntity
  8
1
  6
Continuous
 62
     7
100
AcDbLine
 10
191.5
 20
397.0
 30
0.0
 11
308.4999999999999
 21
397.0
 31
0.0
  0
ARC
  5
1CE
330
1E
100
AcDbEntity
  8
1
  6
Continuous
 62
     7
100
AcDbCircle
 10
308.4999999999999
 20
404.0
 30
0.0
 40
7.0
100
AcDbArc
 50
270.0
 51
0.0
  0
LINE
  5
1CF
330
1E
100
AcDbEntity
  8
1
  6
Continuous
 62
     7
100
AcDbLine
 10
315.5
 20
404.0
 30
0.0
 11
315.5
 21
492.0
 31
0.0
  0
ARC
  5
1D0
330
1E
100
AcDbEntity
  8
1
  6
Continuous
 62
     7
100
AcDbCircle
 10
308.4999999999999
 20
492.0
 30
0.0
 40
7.0
100
AcDbArc
 50
0.0
 51
90.0
  0
LINE
  5
1D1
330
1E
100
AcDbEntity
  8
1
  6
Continuous
 62
     7
100
AcDbLine
 10
308.4999999999999
 20
499.0
 30
0.0
 11
191.5
 21
499.0
 31
0.0
  0
LINE
  5
1D2
330
1E
100
AcDbEntity
  8
1
  6
Continuous
 62
     7
100
AcDbLine
 10
184.4999999999999
 20
492.0
 30
0.0
 11
184.4999999999999
 21
404.0
 31
0.0
  0
ARC
  5
1D3
330
1E
100
AcDbEntity
  8
1
  6
Continuous
 62
     7
100
AcDbCircle
 10
191.5
 20
492.0
 30
0.0
 40
7.0
100
AcDbArc
 50
90.0
 51
180.0
  0
LINE
  5
1D4
330
1E
100
AcDbEntity
  8
1
  6
Continuous
 62
     7
100
AcDbLine
 10
180.75
 20
460.5
 30
0.0
 11
180.75
 21
492.0
 31
0.0
  0
ARC
  5
1D5
330
1E
100
AcDbEntity
  8
1
  6
Continuous
 62
     7
100
AcDbCircle
 10
190.7499999999999
 20
492.0
 30
0.0
 40
10.0
100
AcDbArc
 50
90.0
 51
180.0
  0
LINE
  5
1D6
330
1E
100
AcDbEntity
  8
1
  6
Continuous
 62
     7
100
AcDbLine
 10
190.7499999999999
 20
502.0
 30
0.0
 11
309.25
 21
502.0
 31
0.0
  0
LINE
  5
1D7
330
1E
100
AcDbEntity
  8
1
  6
Continuous
 62
     7
100
AcDbLine
 10
319.2499999999999
 20
492.0
 30
0.0
 11
319.2499999999999
 21
460.5
 31
0.0
  0
ARC
  5
1D8
330
1E
100
AcDbEntity
  8
1
  6
Continuous
 62
     7
100
AcDbCircle
 10
309.25
 20
492.0
 30
0.0
 40
10.0
100
AcDbArc
 50
0.0
 51
90.0
  0
LINE
  5
1D9
330
1E
100
AcDbEntity
  8
1
  6
Continuous
 62
     7
100
AcDbLine
 10
178.75
 20
492.0
 30
0.0
 11
178.75
 21
462.0
 31
0.0
  0
ARC
  5
1DA
330
1E
100
AcDbEntity
  8
1
  6
Continuous
 62
     7
100
AcDbCircle
 10
190.7499999999999
 20
492.0
 30
0.0
 40
12.0
100
AcDbArc
 50
90.0
 51
180.0
  0
LINE
  5
1DB
330
1E
100
AcDbEntity
  8
1
  6
Continuous
 62
     7
100
AcDbLine
 10
309.25
 20
504.0
 30
0.0
 11
190.7499999999999
 21
504.0
 31
0.0
  0
LINE
  5
1DC
330
1E
100
AcDbEntity
  8
1
  6
Continuous
 62
     7
100
AcDbLine
 10
321.2499999999999
 20
462.0
 30
0.0
 11
321.2499999999999
 21
492.0
 31
0.0
  0
ARC
  5
1DD
330
1E
100
AcDbEntity
  8
1
  6
Continuous
 62
     7
100
AcDbCircle
 10
309.25
 20
492.0
 30
0.0
 40
12.0
100
AcDbArc
 50
0.0
 51
90.0
  0
LINE
  5
1DE
330
1E
100
AcDbEntity
  8
1
  6
Continuous
 62
     7
100
AcDbLine
 10
327.0
 20
432.0
 30
0.0
 11
324.0
 21
432.0
 31
0.0
  0
LINE
  5
1DF
330
1E
100
AcDbEntity
  8
1
  6
Continuous
 62
     7
100
AcDbLine
 10
176.0
 20
432.0
 30
0.0
 11
173.0
 21
432.0
 31
0.0
  0
LINE
  5
1E0
330
1E
100
AcDbEntity
  8
1
  6
Continuous
 62
     7
100
AcDbLine
 10
176.0
 20
492.0
 30
0.0
 11
176.0
 21
432.0
 31
0.0
  0
ARC
  5
1E1
330
1E
100
AcDbEntity
  8
1
  6
Continuous
 62
     7
100
AcDbCircle
 10
188.4999999999999
 20
492.0
 30
0.0
 40
12.5
100
AcDbArc
 50
90.0
 51
180.0
  0
LINE
  5
1E2
330
1E
100
AcDbEntity
  8
1
  6
Continuous
 62
     7
100
AcDbLine
 10
311.5
 20
504.4999999999999
 30
0.0
 11
188.4999999999999
 21
504.4999999999999
 31
0.0
  0
LINE
  5
1E3
330
1E
100
AcDbEntity
  8
1
  6
Continuous
 62
     7
100
AcDbLine
 10
324.0
 20
432.0
 30
0.0
 11
324.0
 21
492.0
 31
0.0
  0
ARC
  5
1E4
330
1E
100
AcDbEntity
  8
1
  6
Continuous
 62
     7
100
AcDbCircle
 10
311.5
 20
492.0
 30
0.0
 40
12.5
100
AcDbArc
 50
0.0
 51
90.0
  0
LINE
  5
1E5
330
1E
100
AcDbEntity
  8
1
  6
Continuous
 62
     7
100
AcDbLine
 10
173.0
 20
432.0
 30
0.0
 11
173.0
 21
492.0
 31
0.0
  0
ARC
  5
1E6
330
1E
100
AcDbEntity
  8
1
  6
Continuous
 62
     7
100
AcDbCircle
 10
188.4999999999999
 20
492.0
 30
0.0
 40
15.5
100
AcDbArc
 50
90.0
 51
180.0
  0
LINE
  5
1E7
330
1E
100
AcDbEntity
  8
1
  6
Continuous
 62
     7
100
AcDbLine
 10
188.4999999999999
 20
507.5
 30
0.0
 11
311.5
 21
507.5
 31
0.0
  0
LINE
  5
1E8
330
1E
100
AcDbEntity
  8
1
  6
Continuous
 62
     7
100
AcDbLine
 10
327.0
 20
492.0
 30
0.0
 11
327.0
 21
432.0
 31
0.0
  0
ARC
  5
1E9
330
1E
100
AcDbEntity
  8
1
  6
Continuous
 62
     7
100
AcDbCircle
 10
311.5
 20
492.0
 30
0.0
 40
15.5
100
AcDbArc
 50
0.0
 51
90.0
  0
LINE
  5
1EA
330
1E
100
AcDbEntity
  8
1
  6
Continuous
 62
     7
100
AcDbLine
 10
252.499172
 20
391.0
 30
0.0
 11
247.868966
 21
391.0
 31
0.0
  0
LINE
  5
1EB
330
1E
100
AcDbEntity
  8
1
  6
Continuous
 62
     7
100
AcDbLine
 10
230.500828
 20
391.0
 30
0.0
 11
235.1310339999999
 21
391.0
 31
0.0
  0
LINE
  5
1EC
330
1E
100
AcDbEntity
  8
1
  6
Continuous
 62
     7
100
AcDbLine
 10
236.9174239999999
 20
391.0
 30
0.0
 11
246.082576
 21
391.0
 31
0.0
  0
LINE
  5
1ED
330
1E
100
AcDbEntity
  8
1
  6
Continuous
 62
     7
100
AcDbLine
 10
873.0
 20
432.0
 30
0.0
 11
873.0
 21
492.0
 31
0.0
  0
ARC
  5
1EE
330
1E
100
AcDbEntity
  8
1
  6
Continuous
 62
     7
100
AcDbCircle
 10
888.4999999999999
 20
492.0
 30
0.0
 40
15.5
100
AcDbArc
 50
90.0
 51
180.0
  0
LINE
  5
1EF
330
1E
100
AcDbEntity
  8
1
  6
Continuous
 62
     7
100
AcDbLine
 10
888.4999999999999
 20
507.5
 30
0.0
 11
1011.5
 21
507.5
 31
0.0
  0
LINE
  5
1F0
330
1E
100
AcDbEntity
  8
1
  6
Continuous
 62
     7
100
AcDbLine
 10
1027.0
 20
492.0
 30
0.0
 11
1027.0
 21
432.0
 31
0.0
  0
ARC
  5
1F1
330
1E
100
AcDbEntity
  8
1
  6
Continuous
 62
     7
100
AcDbCircle
 10
1011.5
 20
492.0
 30
0.0
 40
15.5
100
AcDbArc
 50
0.0
 51
90.0
  0
ARC
  5
1F2
330
1E
100
AcDbEntity
  8
1
  6
Continuous
 62
     7
100
AcDbCircle
 10
1027.0
 20
417.4999999999999
 30
0.0
 40
14.5
100
AcDbArc
 50
90.0
 51
180.0
  0
ARC
  5
1F3
330
1E
100
AcDbEntity
  8
1
  6
Continuous
 62
     7
100
AcDbCircle
 10
873.0
 20
417.4999999999999
 30
0.0
 40
14.5
100
AcDbArc
 50
0.0
 51
90.0
  0
LINE
  5
1F4
330
1E
100
AcDbEntity
  8
1
  6
Continuous
 62
     7
100
AcDbLine
 10
887.5
 20
417.4999999999999
 30
0.0
 11
887.5
 21
404.0
 31
0.0
  0
ARC
  5
1F5
330
1E
100
AcDbEntity
  8
1
  6
Continuous
 62
     7
100
AcDbCircle
 10
891.5
 20
404.0
 30
0.0
 40
4.0
100
AcDbArc
 50
180.0
 51
270.0
  0
LINE
  5
1F6
330
1E
100
AcDbEntity
  8
1
  6
Continuous
 62
     7
100
AcDbLine
 10
891.5
 20
400.0
 30
0.0
 11
1008.5
 21
400.0
 31
0.0
  0
LINE
  5
1F7
330
1E
100
AcDbEntity
  8
1
  6
Continuous
 62
     7
100
AcDbLine
 10
1012.499999999999
 20
404.0
 30
0.0
 11
1012.499999999999
 21
417.4999999999999
 31
0.0
  0
ARC
  5
1F8
330
1E
100
AcDbEntity
  8
1
  6
Continuous
 62
     7
100
AcDbCircle
 10
1008.5
 20
404.0
 30
0.0
 40
4.0
100
AcDbArc
 50
270.0
 51
0.0
  0
LINE
  5
1F9
330
1E
100
AcDbEntity
  8
1
  6
Continuous
 62
     7
100
AcDbLine
 10
1015.5
 20
404.0
 30
0.0
 11
1015.5
 21
426.331761
 31
0.0
  0
ARC
  5
1FA
330
1E
100
AcDbEntity
  8
1
  6
Continuous
 62
     7
100
AcDbCircle
 10
1008.5
 20
404.0
 30
0.0
 40
7.0
100
AcDbArc
 50
270.0
 51
0.0
  0
LINE
  5
1FB
330
1E
100
AcDbEntity
  8
1
  6
Continuous
 62
     7
100
AcDbLine
 10
891.5
 20
397.0
 30
0.0
 11
1008.5
 21
397.0
 31
0.0
  0
LINE
  5
1FC
330
1E
100
AcDbEntity
  8
1
  6
Continuous
 62
     7
100
AcDbLine
 10
884.5
 20
426.331761
 30
0.0
 11
884.5
 21
404.0
 31
0.0
  0
ARC
  5
1FD
330
1E
100
AcDbEntity
  8
1
  6
Continuous
 62
     7
100
AcDbCircle
 10
891.5
 20
404.0
 30
0.0
 40
7.0
100
AcDbArc
 50
180.0
 51
270.0
  0
ARC
  5
1FE
330
1E
100
AcDbEntity
  8
1
  6
Continuous
 62
     7
100
AcDbCircle
 10
327.0
 20
417.4999999999999
 30
0.0
 40
14.5
100
AcDbArc
 50
90.0
 51
142.476487
  0
ARC
  5
1FF
330
1E
100
AcDbEntity
  8
1
  6
Continuous
 62
     7
100
AcDbCircle
 10
173.0
 20
417.4999999999999
 30
0.0
 40
14.5
100
AcDbArc
 50
37.523513
 51
90.0
  0
CIRCLE
  5
200
330
1E
100
AcDbEntity
  8
1
  6
Continuous
 62
     7
100
AcDbCircle
 10
192.0
 20
404.4999999999999
 30
0.0
 40
3.5
  0
LINE
  5
201
330
1E
100
AcDbEntity
  8
1
  6
Continuous
 62
     7
100
AcDbLine
 10
189.4999999999999
 20
404.4999999999999
 30
0.0
 11
194.5
 21
404.4999999999999
 31
0.0
  0
LINE
  5
202
330
1E
100
AcDbEntity
  8
1
  6
Continuous
 62
     7
100
AcDbLine
 10
192.0
 20
407.0
 30
0.0
 11
192.0
 21
402.0
 31
0.0
  0
LINE
  5
203
330
1E
100
AcDbEntity
  8
1
  6
Continuous
 62
     7
100
AcDbLine
 10
187.5
 20
409.0
 30
0.0
 11
192.5
 21
409.0
 31
0.0
  0
LINE
  5
204
330
1E
100
AcDbEntity
  8
1
  6
Continuous
 62
     7
100
AcDbLine
 10
196.5
 20
405.0
 30
0.0
 11
196.5
 21
400.0
 31
0.0
  0
ARC
  5
205
330
1E
100
AcDbEntity
  8
1
  6
Continuous
 62
     7
100
AcDbCircle
 10
192.5
 20
405.0
 30
0.0
 40
4.0
100
AcDbArc
 50
0.0
 51
90.0
  0
CIRCLE
  5
206
330
1E
100
AcDbEntity
  8
1
  6
Continuous
 62
     7
100
AcDbCircle
 10
192.0
 20
491.5
 30
0.0
 40
3.5
  0
LINE
  5
207
330
1E
100
AcDbEntity
  8
1
  6
Continuous
 62
     7
100
AcDbLine
 10
189.4999999999999
 20
491.5
 30
0.0
 11
194.5
 21
491.5
 31
0.0
  0
LINE
  5
208
330
1E
100
AcDbEntity
  8
1
  6
Continuous
 62
     7
100
AcDbLine
 10
192.0
 20
489.0
 30
0.0
 11
192.0
 21
494.0
 31
0.0
  0
LINE
  5
209
330
1E
100
AcDbEntity
  8
1
  6
Continuous
 62
     7
100
AcDbLine
 10
187.5
 20
487.0
 30
0.0
 11
192.5
 21
487.0
 31
0.0
  0
LINE
  5
20A
330
1E
100
AcDbEntity
  8
1
  6
Continuous
 62
     7
100
AcDbLine
 10
196.5
 20
491.0
 30
0.0
 11
196.5
 21
496.0
 31
0.0
  0
ARC
  5
20B
330
1E
100
AcDbEntity
  8
1
  6
Continuous
 62
     7
100
AcDbCircle
 10
192.5
 20
491.0
 30
0.0
 40
4.0
100
AcDbArc
 50
270.0
 51
0.0
  0
CIRCLE
  5
20C
330
1E
100
AcDbEntity
  8
1
  6
Continuous
 62
     7
100
AcDbCircle
 10
308.0
 20
404.4999999999999
 30
0.0
 40
3.5
  0
LINE
  5
20D
330
1E
100
AcDbEntity
  8
1
  6
Continuous
 62
     7
100
AcDbLine
 10
310.4999999999999
 20
404.4999999999999
 30
0.0
 11
305.5
 21
404.4999999999999
 31
0.0
  0
LINE
  5
20E
330
1E
100
AcDbEntity
  8
1
  6
Continuous
 62
     7
100
AcDbLine
 10
308.0
 20
407.0
 30
0.0
 11
308.0
 21
402.0
 31
0.0
  0
LINE
  5
20F
330
1E
100
AcDbEntity
  8
1
  6
Continuous
 62
     7
100
AcDbLine
 10
312.5
 20
409.0
 30
0.0
 11
307.5
 21
409.0
 31
0.0
  0
LINE
  5
210
330
1E
100
AcDbEntity
  8
1
  6
Continuous
 62
     7
100
AcDbLine
 10
303.5
 20
405.0
 30
0.0
 11
303.5
 21
400.0
 31
0.0
  0
ARC
  5
211
330
1E
100
AcDbEntity
  8
1
  6
Continuous
 62
     7
100
AcDbCircle
 10
307.5
 20
405.0
 30
0.0
 40
4.0
100
AcDbArc
 50
90.0
 51
180.0
  0
CIRCLE
  5
212
330
1E
100
AcDbEntity
  8
1
  6
Continuous
 62
     7
100
AcDbCircle
 10
308.0
 20
491.5
 30
0.0
 40
3.5
  0
LINE
  5
213
330
1E
100
AcDbEntity
  8
1
  6
Continuous
 62
     7
100
AcDbLine
 10
310.4999999999999
 20
491.5
 30
0.0
 11
305.5
 21
491.5
 31
0.0
  0
LINE
  5
214
330
1E
100
AcDbEntity
  8
1
  6
Continuous
 62
     7
100
AcDbLine
 10
308.0
 20
489.0
 30
0.0
 11
308.0
 21
494.0
 31
0.0
  0
LINE
  5
215
330
1E
100
AcDbEntity
  8
1
  6
Continuous
 62
     7
100
AcDbLine
 10
312.5
 20
487.0
 30
0.0
 11
307.5
 21
487.0
 31
0.0
  0
LINE
  5
216
330
1E
100
AcDbEntity
  8
1
  6
Continuous
 62
     7
100
AcDbLine
 10
303.5
 20
491.0
 30
0.0
 11
303.5
 21
496.0
 31
0.0
  0
ARC
  5
217
330
1E
100
AcDbEntity
  8
1
  6
Continuous
 62
     7
100
AcDbCircle
 10
307.5
 20
491.0
 30
0.0
 40
4.0
100
AcDbArc
 50
180.0
 51
270.0
  0
CIRCLE
  5
218
330
1E
100
AcDbEntity
  8
1
  6
Continuous
 62
     7
100
AcDbCircle
 10
892.0
 20
404.4999999999999
 30
0.0
 40
3.5
  0
LINE
  5
219
330
1E
100
AcDbEntity
  8
1
  6
Continuous
 62
     7
100
AcDbLine
 10
889.4999999999999
 20
404.4999999999999
 30
0.0
 11
894.5
 21
404.4999999999999
 31
0.0
  0
LINE
  5
21A
330
1E
100
AcDbEntity
  8
1
  6
Continuous
 62
     7
100
AcDbLine
 10
892.0
 20
407.0
 30
0.0
 11
892.0
 21
402.0
 31
0.0
  0
CIRCLE
  5
21B
330
1E
100
AcDbEntity
  8
1
  6
Continuous
 62
     7
100
AcDbCircle
 10
892.0
 20
491.5
 30
0.0
 40
3.5
  0
LINE
  5
21C
330
1E
100
AcDbEntity
  8
1
  6
Continuous
 62
     7
100
AcDbLine
 10
889.4999999999999
 20
491.5
 30
0.0
 11
894.5
 21
491.5
 31
0.0
  0
LINE
  5
21D
330
1E
100
AcDbEntity
  8
1
  6
Continuous
 62
     7
100
AcDbLine
 10
892.0
 20
489.0
 30
0.0
 11
892.0
 21
494.0
 31
0.0
  0
CIRCLE
  5
21E
330
1E
100
AcDbEntity
  8
1
  6
Continuous
 62
     7
100
AcDbCircle
 10
1008.0
 20
404.4999999999999
 30
0.0
 40
3.5
  0
LINE
  5
21F
330
1E
100
AcDbEntity
  8
1
  6
Continuous
 62
     7
100
AcDbLine
 10
1010.5
 20
404.4999999999999
 30
0.0
 11
1005.5
 21
404.4999999999999
 31
0.0
  0
LINE
  5
220
330
1E
100
AcDbEntity
  8
1
  6
Continuous
 62
     7
100
AcDbLine
 10
1008.0
 20
407.0
 30
0.0
 11
1008.0
 21
402.0
 31
0.0
  0
CIRCLE
  5
221
330
1E
100
AcDbEntity
  8
1
  6
Continuous
 62
     7
100
AcDbCircle
 10
1008.0
 20
491.5
 30
0.0
 40
3.5
  0
LINE
  5
222
330
1E
100
AcDbEntity
  8
1
  6
Continuous
 62
     7
100
AcDbLine
 10
1010.5
 20
491.5
 30
0.0
 11
1005.5
 21
491.5
 31
0.0
  0
LINE
  5
223
330
1E
100
AcDbEntity
  8
1
  6
Continuous
 62
     7
100
AcDbLine
 10
1008.0
 20
489.0
 30
0.0
 11
1008.0
 21
494.0
 31
0.0
  0
LINE
  5
224
330
1E
100
AcDbEntity
  8
1
  6
Continuous
 62
     7
100
AcDbLine
 10
887.5
 20
409.0
 30
0.0
 11
892.5
 21
409.0
 31
0.0
  0
LINE
  5
225
330
1E
100
AcDbEntity
  8
1
  6
Continuous
 62
     7
100
AcDbLine
 10
896.4999999999999
 20
405.0
 30
0.0
 11
896.4999999999999
 21
400.0
 31
0.0
  0
ARC
  5
226
330
1E
100
AcDbEntity
  8
1
  6
Continuous
 62
     7
100
AcDbCircle
 10
892.5
 20
405.0
 30
0.0
 40
4.0
100
AcDbArc
 50
0.0
 51
90.0
  0
LINE
  5
227
330
1E
100
AcDbEntity
  8
1
  6
Continuous
 62
     7
100
AcDbLine
 10
1003.5
 20
400.0
 30
0.0
 11
1003.5
 21
405.0
 31
0.0
  0
LINE
  5
228
330
1E
100
AcDbEntity
  8
1
  6
Continuous
 62
     7
100
AcDbLine
 10
1007.5
 20
409.0
 30
0.0
 11
1012.499999999999
 21
409.0
 31
0.0
  0
ARC
  5
229
330
1E
100
AcDbEntity
  8
1
  6
Continuous
 62
     7
100
AcDbCircle
 10
1007.5
 20
405.0
 30
0.0
 40
4.0
100
AcDbArc
 50
90.0
 51
180.0
  0
CIRCLE
  5
22A
330
1E
100
AcDbEntity
  8
1
  6
Continuous
 62
     7
100
AcDbCircle
 10
892.0
 20
491.5
 30
0.0
 40
4.5
  0
CIRCLE
  5
22B
330
1E
100
AcDbEntity
  8
1
  6
Continuous
 62
     7
100
AcDbCircle
 10
1008.0
 20
491.5
 30
0.0
 40
4.5
  0
LINE
  5
22C
330
1E
100
AcDbEntity
  8
1
  6
Continuous
 62
     7
100
AcDbLine
 10
790.0
 20
572.999999
 30
0.0
 11
802.0
 21
572.999999
 31
0.0
  0
LINE
  5
22D
330
1E
100
AcDbEntity
  8
1
  6
Continuous
 62
     7
100
AcDbLine
 10
802.0
 20
726.999999
 30
0.0
 11
790.0
 21
726.999999
 31
0.0
  0
LINE
  5
22E
330
1E
100
AcDbEntity
  8
1
  6
Continuous
 62
     7
100
AcDbLine
 10
822.0
 20
702.999998
 30
0.0
 11
822.0
 21
597.0
 31
0.0
  0
LINE
  5
22F
330
1E
100
AcDbEntity
  8
1
  6
Continuous
 62
     7
100
AcDbLine
 10
802.0
 20
726.999999
 30
0.0
 11
821.9999989999999
 21
702.999999
 31
0.0
  0
LINE
  5
230
330
1E
100
AcDbEntity
  8
1
  6
Continuous
 62
     7
100
AcDbLine
 10
802.0
 20
572.999999
 30
0.0
 11
822.0
 21
596.9999989999999
 31
0.0
  0
LINE
  5
231
330
1E
100
AcDbEntity
  8
1
  6
Continuous
 62
     7
100
AcDbLine
 10
385.0
 20
721.249999
 30
0.0
 11
385.0
 21
578.7499989999999
 31
0.0
  0
LINE
  5
232
330
1E
100
AcDbEntity
  8
1
  6
Continuous
 62
     7
100
AcDbLine
 10
790.0
 20
572.999999
 30
0.0
 11
790.0
 21
726.999999
 31
0.0
  0
LINE
  5
233
330
1E
100
AcDbEntity
  8
1
  6
Continuous
 62
     7
100
AcDbLine
 10
385.0
 20
721.249999
 30
0.0
 11
790.0
 21
721.249999
 31
0.0
  0
LINE
  5
234
330
1E
100
AcDbEntity
  8
1
  6
Continuous
 62
     7
100
AcDbLine
 10
790.0
 20
721.9999989999999
 30
0.0
 11
413.482143
 21
721.9999989999999
 31
0.0
  0
LINE
  5
235
330
1E
100
AcDbEntity
  8
1
  6
Continuous
 62
     7
100
AcDbLine
 10
413.482143
 20
721.9999989999999
 30
0.0
 11
413.482143
 21
721.249999
 31
0.0
  0
LINE
  5
236
330
1E
100
AcDbEntity
  8
1
  6
Continuous
 62
     7
100
AcDbLine
 10
385.0
 20
578.7499989999999
 30
0.0
 11
790.0
 21
578.7499989999999
 31
0.0
  0
LINE
  5
237
330
1E
100
AcDbEntity
  8
1
  6
Continuous
 62
     7
100
AcDbLine
 10
790.0
 20
577.999999
 30
0.0
 11
413.482143
 21
577.999999
 31
0.0
  0
LINE
  5
238
330
1E
100
AcDbEntity
  8
1
  6
Continuous
 62
     7
100
AcDbLine
 10
413.482143
 20
577.999999
 30
0.0
 11
413.482143
 21
578.7499989999999
 31
0.0
  0
LINE
  5
23E
330
1E
100
AcDbEntity
  8
1
  6
Continuous
 62
     7
100
AcDbLine
 10
802.0
 20
400.0
 30
0.0
 11
818.0
 21
400.0
 31
0.0
  0
LINE
  5
23F
330
1E
100
AcDbEntity
  8
1
  6
Continuous
 62
     7
100
AcDbLine
 10
822.0
 20
404.0
 30
0.0
 11
822.0
 21
484.0
 31
0.0
  0
ARC
  5
240
330
1E
100
AcDbEntity
  8
1
  6
Continuous
 62
     7
100
AcDbCircle
 10
818.0
 20
404.0
 30
0.0
 40
4.0
100
AcDbArc
 50
270.0
 51
0.0
  0
ARC
  5
241
330
1E
100
AcDbEntity
  8
1
  6
Continuous
 62
     7
100
AcDbCircle
 10
802.0
 20
420.0
 30
0.0
 40
12.0
100
AcDbArc
 50
0.0
 51
90.0
  0
ARC
  5
242
330
1E
100
AcDbEntity
  8
1
  6
Continuous
 62
     7
100
AcDbCircle
 10
818.0
 20
405.0
 30
0.0
 40
4.0
100
AcDbArc
 50
0.0
 51
90.0
  0
LINE
  5
243
330
1E
100
AcDbEntity
  8
1
  6
Continuous
 62
     7
100
AcDbLine
 10
806.0
 20
400.0
 30
0.0
 11
806.0
 21
409.0
 31
0.0
  0
LINE
  5
244
330
1E
100
AcDbEntity
  8
1
  6
Continuous
 62
     7
100
AcDbLine
 10
806.0
 20
409.0
 30
0.0
 11
818.000001
 21
409.0
 31
0.0
  0
LINE
  5
245
330
1E
100
AcDbEntity
  8
1
  6
Continuous
 62
     7
100
AcDbLine
 10
814.0
 20
409.0
 30
0.0
 11
814.0
 21
420.0
 31
0.0
  0
ARC
  5
246
330
1E
100
AcDbEntity
  8
1
  6
Continuous
 62
     7
100
AcDbCircle
 10
806.0
 20
405.0
 30
0.0
 40
3.0
100
AcDbArc
 50
0.0
 51
90.0
  0
ARC
  5
247
330
1E
100
AcDbEntity
  8
1
  6
Continuous
 62
     7
100
AcDbCircle
 10
806.0
 20
404.0
 30
0.0
 40
3.0
100
AcDbArc
 50
270.0
 51
0.0
  0
LINE
  5
248
330
1E
100
AcDbEntity
  8
1
  6
Continuous
 62
     7
100
AcDbLine
 10
809.0
 20
404.0
 30
0.0
 11
809.0
 21
405.28292
 31
0.0
  0
ARC
  5
249
330
1E
100
AcDbEntity
  8
1
  6
Continuous
 62
     7
100
AcDbCircle
 10
806.0
 20
308.4999999999999
 30
0.0
 40
3.0
100
AcDbArc
 50
0.0
 51
90.0
  0
ARC
  5
24A
330
1E
100
AcDbEntity
  8
1
  6
Continuous
 62
     7
100
AcDbCircle
 10
806.0
 20
307.5
 30
0.0
 40
3.0
100
AcDbArc
 50
270.0
 51
0.0
  0
LINE
  5
24B
330
1E
100
AcDbEntity
  8
1
  6
Continuous
 62
     7
100
AcDbLine
 10
809.0
 20
307.5
 30
0.0
 11
809.0
 21
308.78292
 31
0.0
  0
ARC
  5
24C
330
1E
100
AcDbEntity
  8
1
  6
Continuous
 62
     7
100
AcDbCircle
 10
806.0
 20
192.5
 30
0.0
 40
3.0
100
AcDbArc
 50
0.0
 51
90.0
  0
ARC
  5
24D
330
1E
100
AcDbEntity
  8
1
  6
Continuous
 62
     7
100
AcDbCircle
 10
806.0
 20
191.5
 30
0.0
 40
3.0
100
AcDbArc
 50
270.0
 51
0.0
  0
LINE
  5
24E
330
1E
100
AcDbEntity
  8
1
  6
Continuous
 62
     7
100
AcDbLine
 10
809.0
 20
191.5
 30
0.0
 11
809.0
 21
192.7829199999999
 31
0.0
  0
LINE
  5
24F
330
1E
100
AcDbEntity
  8
1
  6
Continuous
 62
     7
100
AcDbLine
 10
442.9166659999999
 20
303.5
 30
0.0
 11
442.9166659999999
 21
312.5
 31
0.0
  0
LINE
  5
250
330
1E
100
AcDbEntity
  8
1
  6
Continuous
 62
     7
100
AcDbLine
 10
437.916666
 20
306.5000009999999
 30
0.0
 11
437.916666
 21
306.4999999999999
 31
0.0
  0
LINE
  5
251
330
1E
100
AcDbEntity
  8
1
  6
Continuous
 62
     7
100
AcDbLine
 10
440.916666
 20
303.5
 30
0.0
 11
442.9166659999999
 21
303.5
 31
0.0
  0
ARC
  5
252
330
1E
100
AcDbEntity
  8
1
  6
Continuous
 62
     7
100
AcDbCircle
 10
440.916666
 20
306.4999999999999
 30
0.0
 40
3.0
100
AcDbArc
 50
180.0
 51
270.0
  0
LINE
  5
253
330
1E
100
AcDbEntity
  8
1
  6
Continuous
 62
     7
100
AcDbLine
 10
440.916666
 20
196.5000009999999
 30
0.0
 11
442.9166659999999
 21
196.5000009999999
 31
0.0
  0
ARC
  5
254
330
1E
100
AcDbEntity
  8
1
  6
Continuous
 62
     7
100
AcDbCircle
 10
440.916666
 20
193.5000009999999
 30
0.0
 40
3.0
100
AcDbArc
 50
90.0
 51
180.0
  0
LINE
  5
255
330
1E
100
AcDbEntity
  8
1
  6
Continuous
 62
     7
100
AcDbLine
 10
442.9166659999999
 20
196.5000009999999
 30
0.0
 11
442.9166659999999
 21
187.5000009999999
 31
0.0
  0
LINE
  5
256
330
1E
100
AcDbEntity
  8
1
  6
Continuous
 62
     7
100
AcDbLine
 10
442.9166659999999
 20
196.5000009999999
 30
0.0
 11
442.9166659999999
 21
303.5
 31
0.0
  0
ARC
  5
257
330
1E
100
AcDbEntity
  8
1
  6
Continuous
 62
     7
100
AcDbCircle
 10
442.9166659999999
 20
308.4999999999999
 30
0.0
 40
3.0
100
AcDbArc
 50
90.0
 51
180.0
  0
ARC
  5
258
330
1E
100
AcDbEntity
  8
1
  6
Continuous
 62
     7
100
AcDbCircle
 10
442.9166659999999
 20
307.5
 30
0.0
 40
3.0
100
AcDbArc
 50
180.0
 51
270.0
  0
LINE
  5
259
330
1E
100
AcDbEntity
  8
1
  6
Continuous
 62
     7
100
AcDbLine
 10
439.916666
 20
307.5
 30
0.0
 11
439.916666
 21
308.78292
 31
0.0
  0
LINE
  5
25A
330
1E
100
AcDbEntity
  8
1
  6
Continuous
 62
     7
100
AcDbLine
 10
442.9166669999999
 20
312.5
 30
0.0
 11
441.9499909999999
 21
311.339989
 31
0.0
  0
LINE
  5
25B
330
1E
100
AcDbEntity
  8
1
  6
Continuous
 62
     7
100
AcDbLine
 10
439.916666
 20
308.5000009999999
 30
0.0
 11
435.0
 21
302.999999
 31
0.0
  0
ARC
  5
25C
330
1E
100
AcDbEntity
  8
1
  6
Continuous
 62
     7
100
AcDbCircle
 10
442.9166659999999
 20
191.5
 30
0.0
 40
3.0
100
AcDbArc
 50
180.0
 51
270.0
  0
ARC
  5
25D
330
1E
100
AcDbEntity
  8
1
  6
Continuous
 62
     7
100
AcDbCircle
 10
442.9166659999999
 20
192.5
 30
0.0
 40
3.0
100
AcDbArc
 50
90.0
 51
180.0
  0
LINE
  5
25E
330
1E
100
AcDbEntity
  8
1
  6
Continuous
 62
     7
100
AcDbLine
 10
439.916666
 20
192.5
 30
0.0
 11
439.916666
 21
191.21708
 31
0.0
  0
LINE
  5
25F
330
1E
100
AcDbEntity
  8
1
  6
Continuous
 62
     7
100
AcDbLine
 10
442.9166669999999
 20
187.5
 30
0.0
 11
441.9499909999999
 21
188.660011
 31
0.0
  0
LINE
  5
260
330
1E
100
AcDbEntity
  8
1
  6
Continuous
 62
     7
100
AcDbLine
 10
439.916666
 20
191.499999
 30
0.0
 11
435.0
 21
197.0000009999999
 31
0.0
  0
LINE
  5
261
330
1E
100
AcDbEntity
  8
1
  6
Continuous
 62
     7
100
AcDbLine
 10
440.916666
 20
409.0
 30
0.0
 11
442.9166659999999
 21
409.0
 31
0.0
  0
ARC
  5
262
330
1E
100
AcDbEntity
  8
1
  6
Continuous
 62
     7
100
AcDbCircle
 10
440.916666
 20
406.0
 30
0.0
 40
3.0
100
AcDbArc
 50
90.0
 51
180.0
  0
ARC
  5
263
330
1E
100
AcDbEntity
  8
1
  6
Continuous
 62
     7
100
AcDbCircle
 10
442.9166659999999
 20
403.999999
 30
0.0
 40
3.0
100
AcDbArc
 50
180.0
 51
270.0
  0
ARC
  5
264
330
1E
100
AcDbEntity
  8
1
  6
Continuous
 62
     7
100
AcDbCircle
 10
442.9166659999999
 20
404.9999989999999
 30
0.0
 40
3.0
100
AcDbArc
 50
90.0
 51
180.0
  0
LINE
  5
265
330
1E
100
AcDbEntity
  8
1
  6
Continuous
 62
     7
100
AcDbLine
 10
439.916666
 20
404.9999989999999
 30
0.0
 11
439.916666
 21
403.717079
 31
0.0
  0
LINE
  5
266
330
1E
100
AcDbEntity
  8
1
  6
Continuous
 62
     7
100
AcDbLine
 10
442.9166669999999
 20
399.999999
 30
0.0
 11
441.9499909999999
 21
401.1600089999999
 31
0.0
  0
LINE
  5
267
330
1E
100
AcDbEntity
  8
1
  6
Continuous
 62
     7
100
AcDbLine
 10
439.916666
 20
403.999998
 30
0.0
 11
435.0
 21
409.4999999999999
 31
0.0
  0
LINE
  5
268
330
1E
100
AcDbEntity
  8
1
  6
Continuous
 62
     7
100
AcDbLine
 10
442.9166659999999
 20
400.0
 30
0.0
 11
442.9166659999999
 21
409.0
 31
0.0
  0
LINE
  5
269
330
1E
100
AcDbEntity
  8
1
  6
Continuous
 62
     7
100
AcDbLine
 10
442.9166659999999
 20
409.0
 30
0.0
 11
442.9166659999999
 21
435.0
 31
0.0
  0
LINE
  5
26A
330
1E
100
AcDbEntity
  8
1
  6
Continuous
 62
     7
100
AcDbLine
 10
814.0
 20
491.0
 30
0.0
 11
814.0
 21
493.4
 31
0.0
  0
LINE
  5
26B
330
1E
100
AcDbEntity
  8
1
  6
Continuous
 62
     7
100
AcDbLine
 10
819.446809
 20
487.0
 30
0.0
 11
818.0
 21
487.0
 31
0.0
  0
ARC
  5
26C
330
1E
100
AcDbEntity
  8
1
  6
Continuous
 62
     7
100
AcDbCircle
 10
818.0
 20
491.0
 30
0.0
 40
4.0
100
AcDbArc
 50
180.0
 51
270.0
  0
LINE
  5
26D
330
1E
100
AcDbEntity
  8
1
  6
Continuous
 62
     7
100
AcDbLine
 10
814.0
 20
587.3999989999999
 30
0.0
 11
814.0
 21
588.4999989999999
 31
0.0
  0
LINE
  5
26E
330
1E
100
AcDbEntity
  8
1
  6
Continuous
 62
     7
100
AcDbLine
 10
817.5
 20
591.9999989999999
 30
0.0
 11
817.833333
 21
591.9999989999999
 31
0.0
  0
ARC
  5
26F
330
1E
100
AcDbEntity
  8
1
  6
Continuous
 62
     7
100
AcDbCircle
 10
817.5
 20
588.4999989999999
 30
0.0
 40
3.5
100
AcDbArc
 50
90.0
 51
180.0
  0
LINE
  5
270
330
1E
100
AcDbEntity
  8
1
  6
Continuous
 62
     7
100
AcDbLine
 10
814.0
 20
712.599998
 30
0.0
 11
814.0
 21
711.499999
 31
0.0
  0
LINE
  5
271
330
1E
100
AcDbEntity
  8
1
  6
Continuous
 62
     7
100
AcDbLine
 10
817.5
 20
707.999999
 30
0.0
 11
817.833333
 21
707.999999
 31
0.0
  0
ARC
  5
272
330
1E
100
AcDbEntity
  8
1
  6
Continuous
 62
     7
100
AcDbCircle
 10
817.5
 20
711.499999
 30
0.0
 40
3.5
100
AcDbArc
 50
180.0
 51
270.0
  0
LINE
  5
273
330
1E
100
AcDbEntity
  8
1
  6
Continuous
 62
     7
100
AcDbLine
 10
802.0
 20
726.999999
 30
0.0
 11
802.0
 21
572.999999
 31
0.0
  0
LINE
  5
274
330
1E
100
AcDbEntity
  8
1
  6
Continuous
 62
     7
100
AcDbLine
 10
802.0
 20
432.0
 30
0.0
 11
802.0
 21
507.5
 31
0.0
  0
LINE
  5
275
330
1E
100
AcDbEntity
  8
1
  6
Continuous
 62
     7
100
AcDbLine
 10
317.0825759999999
 20
462.5
 30
0.0
 11
319.2499999999999
 21
462.5
 31
0.0
  0
LINE
  5
276
330
1E
100
AcDbEntity
  8
1
  6
Continuous
 62
     7
100
AcDbLine
 10
319.2499999999999
 20
463.4999999999999
 30
0.0
 11
317.6961519999999
 21
463.4999999999999
 31
0.0
  0
LINE
  5
277
330
1E
100
AcDbEntity
  8
1
  6
Continuous
 62
     7
100
AcDbLine
 10
317.6961519999999
 20
457.5
 30
0.0
 11
319.2499999999999
 21
457.5
 31
0.0
  0
LINE
  5
278
330
1E
100
AcDbEntity
  8
1
  6
Continuous
 62
     7
100
AcDbLine
 10
317.2499999999999
 20
458.4999999999999
 30
0.0
 11
317.0825759999999
 21
458.4999999999999
 31
0.0
  0
ARC
  5
279
330
1E
100
AcDbEntity
  8
1
  6
Continuous
 62
     7
100
AcDbCircle
 10
312.5
 20
460.5
 30
0.0
 40
5.0
100
AcDbArc
 50
23.578178
 51
53.130102
  0
ARC
  5
27A
330
1E
100
AcDbEntity
  8
1
  6
Continuous
 62
     7
100
AcDbCircle
 10
312.5
 20
460.5
 30
0.0
 40
6.0
100
AcDbArc
 50
30.0
 51
60.0
  0
ARC
  5
27B
330
1E
100
AcDbEntity
  8
1
  6
Continuous
 62
     7
100
AcDbCircle
 10
312.5
 20
460.5
 30
0.0
 40
5.0
100
AcDbArc
 50
306.8698979999999
 51
336.421822
  0
ARC
  5
27C
330
1E
100
AcDbEntity
  8
1
  6
Continuous
 62
     7
100
AcDbCircle
 10
312.5
 20
460.5
 30
0.0
 40
6.0
100
AcDbArc
 50
300.0
 51
330.0
  0
LINE
  5
27D
330
1E
100
AcDbEntity
  8
1
  6
Continuous
 62
     7
100
AcDbLine
 10
182.917424
 20
462.5
 30
0.0
 11
180.75
 21
462.5
 31
0.0
  0
LINE
  5
27E
330
1E
100
AcDbEntity
  8
1
  6
Continuous
 62
     7
100
AcDbLine
 10
180.75
 20
463.4999999999999
 30
0.0
 11
182.3038479999999
 21
463.4999999999999
 31
0.0
  0
LINE
  5
27F
330
1E
100
AcDbEntity
  8
1
  6
Continuous
 62
     7
100
AcDbLine
 10
182.3038479999999
 20
457.5
 30
0.0
 11
180.75
 21
457.5
 31
0.0
  0
LINE
  5
280
330
1E
100
AcDbEntity
  8
1
  6
Continuous
 62
     7
100
AcDbLine
 10
182.75
 20
458.4999999999999
 30
0.0
 11
182.917424
 21
458.4999999999999
 31
0.0
  0
ARC
  5
281
330
1E
100
AcDbEntity
  8
1
  6
Continuous
 62
     7
100
AcDbCircle
 10
187.5
 20
460.5
 30
0.0
 40
5.0
100
AcDbArc
 50
126.869898
 51
156.4218219999999
  0
ARC
  5
282
330
1E
100
AcDbEntity
  8
1
  6
Continuous
 62
     7
100
AcDbCircle
 10
187.5
 20
460.5
 30
0.0
 40
6.0
100
AcDbArc
 50
119.9999999999999
 51
150.0
  0
ARC
  5
283
330
1E
100
AcDbEntity
  8
1
  6
Continuous
 62
     7
100
AcDbCircle
 10
187.5
 20
460.5
 30
0.0
 40
5.0
100
AcDbArc
 50
203.578178
 51
233.130102
  0
ARC
  5
284
330
1E
100
AcDbEntity
  8
1
  6
Continuous
 62
     7
100
AcDbCircle
 10
187.5
 20
460.5
 30
0.0
 40
6.0
100
AcDbArc
 50
210.0
 51
240.0
  0
LINE
  5
285
330
1E
100
AcDbEntity
  8
1
  6
Continuous
 62
     7
100
AcDbLine
 10
897.0
 20
400.0
 30
0.0
 11
897.0
 21
480.0
 31
0.0
  0
ARC
  5
286
330
1E
100
AcDbEntity
  8
1
  6
Continuous
 62
     7
100
AcDbCircle
 10
901.0
 20
480.0
 30
0.0
 40
4.0
100
AcDbArc
 50
90.0
 51
180.0
  0
LINE
  5
287
330
1E
100
AcDbEntity
  8
1
  6
Continuous
 62
     7
100
AcDbLine
 10
901.0
 20
484.0
 30
0.0
 11
999.0
 21
484.0
 31
0.0
  0
LINE
  5
288
330
1E
100
AcDbEntity
  8
1
  6
Continuous
 62
     7
100
AcDbLine
 10
1003.0
 20
480.0
 30
0.0
 11
1003.0
 21
400.0
 31
0.0
  0
ARC
  5
289
330
1E
100
AcDbEntity
  8
1
  6
Continuous
 62
     7
100
AcDbCircle
 10
999.0
 20
480.0
 30
0.0
 40
4.0
100
AcDbArc
 50
0.0
 51
90.0
  0
LINE
  5
2C6
330
1E
100
AcDbEntity
  8
1
  6
Continuous
 62
     7
100
AcDbLine
 10
609.0
 20
213.75
 30
0.0
 11
609.0
 21
286.25
 31
0.0
  0
LINE
  5
2C7
330
1E
100
AcDbEntity
  8
1
  6
Continuous
 62
     7
100
AcDbLine
 10
609.0
 20
286.25
 30
0.0
 11
704.0
 21
286.25
 31
0.0
  0
LINE
  5
2C8
330
1E
100
AcDbEntity
  8
1
  6
Continuous
 62
     7
100
AcDbLine
 10
704.0
 20
286.25
 30
0.0
 11
704.0
 21
213.75
 31
0.0
  0
LINE
  5
2C9
330
1E
100
AcDbEntity
  8
1
  6
Continuous
 62
     7
100
AcDbLine
 10
704.0
 20
213.75
 30
0.0
 11
609.0
 21
213.75
 31
0.0
  0
CIRCLE
  5
2CA
330
1E
100
AcDbEntity
  8
1
  6
Continuous
 62
     7
100
AcDbCircle
 10
689.0
 20
250.0
 30
0.0
 40
2.5
  0
CIRCLE
  5
2CB
330
1E
100
AcDbEntity
  8
1
  6
Continuous
 62
     7
100
AcDbCircle
 10
689.0
 20
250.0
 30
0.0
 40
3.5
  0
LINE
  5
2CC
330
1E
100
AcDbEntity
  8
1
  6
DASHDOT
 62
     7
100
AcDbLine
 10
689.0
 20
260.0
 30
0.0
 11
689.0
 21
240.0
 31
0.0
  0
CIRCLE
  5
2CD
330
1E
100
AcDbEntity
  8
1
  6
Continuous
 62
     7
100
AcDbCircle
 10
669.0
 20
250.0
 30
0.0
 40
2.5
  0
CIRCLE
  5
2CE
330
1E
100
AcDbEntity
  8
1
  6
Continuous
 62
     7
100
AcDbCircle
 10
669.0
 20
250.0
 30
0.0
 40
3.5
  0
LINE
  5
2CF
330
1E
100
AcDbEntity
  8
1
  6
DASHDOT
 62
     7
100
AcDbLine
 10
669.0
 20
260.0
 30
0.0
 11
669.0
 21
240.0
 31
0.0
  0
LINE
  5
2D0
330
1E
100
AcDbEntity
  8
1
  6
Continuous
 62
     7
100
AcDbLine
 10
618.0
 20
277.2499999999999
 30
0.0
 11
618.0
 21
222.75
 31
0.0
  0
LINE
  5
2D1
330
1E
100
AcDbEntity
  8
1
  6
Continuous
 62
     7
100
AcDbLine
 10
618.0
 20
222.75
 30
0.0
 11
695.0
 21
222.75
 31
0.0
  0
LINE
  5
2D2
330
1E
100
AcDbEntity
  8
1
  6
Continuous
 62
     7
100
AcDbLine
 10
695.0
 20
222.75
 30
0.0
 11
695.0
 21
277.2499999999999
 31
0.0
  0
LINE
  5
2D3
330
1E
100
AcDbEntity
  8
1
  6
Continuous
 62
     7
100
AcDbLine
 10
695.0
 20
277.2499999999999
 30
0.0
 11
618.0
 21
277.2499999999999
 31
0.0
  0
LINE
  5
2D4
330
1E
100
AcDbEntity
  8
1
  6
Continuous
 62
     7
100
AcDbLine
 10
618.0
 20
277.2499999999999
 30
0.0
 11
609.0
 21
286.25
 31
0.0
  0
LINE
  5
2D5
330
1E
100
AcDbEntity
  8
1
  6
Continuous
 62
     7
100
AcDbLine
 10
618.0
 20
222.75
 30
0.0
 11
609.0
 21
213.75
 31
0.0
  0
LINE
  5
2D6
330
1E
100
AcDbEntity
  8
1
  6
Continuous
 62
     7
100
AcDbLine
 10
695.0
 20
222.75
 30
0.0
 11
704.0
 21
213.75
 31
0.0
  0
LINE
  5
2D7
330
1E
100
AcDbEntity
  8
1
  6
Continuous
 62
     7
100
AcDbLine
 10
695.0
 20
277.2499999999999
 30
0.0
 11
704.0
 21
286.25
 31
0.0
  0
LINE
  5
2D8
330
1E
100
AcDbEntity
  8
1
  6
Continuous
 62
     7
100
AcDbLine
 10
609.0
 20
398.0
 30
0.0
 11
704.0
 21
398.0
 31
0.0
  0
LINE
  5
2D9
330
1E
100
AcDbEntity
  8
1
  6
Continuous
 62
     7
100
AcDbLine
 10
609.0
 20
400.0
 30
0.0
 11
609.0
 21
398.0
 31
0.0
  0
LINE
  5
2DA
330
1E
100
AcDbEntity
  8
1
  6
Continuous
 62
     7
100
AcDbLine
 10
609.0
 20
398.0
 30
0.0
 11
618.0
 21
391.0
 31
0.0
  0
LINE
  5
2DB
330
1E
100
AcDbEntity
  8
1
  6
Continuous
 62
     7
100
AcDbLine
 10
618.0
 20
391.0
 30
0.0
 11
695.0
 21
391.0
 31
0.0
  0
LINE
  5
2DC
330
1E
100
AcDbEntity
  8
1
  6
Continuous
 62
     7
100
AcDbLine
 10
695.0
 20
391.0
 30
0.0
 11
704.0
 21
398.0
 31
0.0
  0
LINE
  5
2DD
330
1E
100
AcDbEntity
  8
1
  6
Continuous
 62
     7
100
AcDbLine
 10
704.0
 20
398.0
 30
0.0
 11
704.0
 21
400.0
 31
0.0
  0
LINE
  5
2DE
330
1E
100
AcDbEntity
  8
1
  6
Continuous
 62
     7
100
AcDbLine
 10
222.75
 20
391.000001
 30
0.0
 11
215.035715
 21
397.0
 31
0.0
  0
LINE
  5
2DF
330
1E
100
AcDbEntity
  8
1
  6
Continuous
 62
     7
100
AcDbLine
 10
277.2499999999999
 20
391.0
 30
0.0
 11
284.964285
 21
397.0
 31
0.0
  0
LINE
  5
2E0
330
1E
100
AcDbEntity
  8
1
  6
Continuous
 62
     7
100
AcDbLine
 10
222.75
 20
391.0
 30
0.0
 11
277.249999
 21
391.0
 31
0.0
  0
CIRCLE
  5
2E1
330
1E
100
AcDbEntity
  8
1
  6
Continuous
 62
     7
100
AcDbCircle
 10
769.0
 20
285.0
 30
0.0
 40
11.0
  0
LINE
  5
2E2
330
1E
100
AcDbEntity
  8
1
  6
Continuous
 62
     7
100
AcDbLine
 10
779.00038
 20
280.4182529999999
 30
0.0
 11
778.99962
 21
289.583404
 31
0.0
  0
LINE
  5
2E3
330
1E
100
AcDbEntity
  8
1
  6
Continuous
 62
     7
100
AcDbLine
 10
777.9680990000001
 20
291.3697089999999
 30
0.0
 11
770.030466
 21
295.9516269999999
 31
0.0
  0
LINE
  5
2E4
330
1E
100
AcDbEntity
  8
1
  6
Continuous
 62
     7
100
AcDbLine
 10
767.96772
 20
295.951456
 30
0.0
 11
760.0308459999999
 21
291.368223
 31
0.0
  0
LINE
  5
2E5
330
1E
100
AcDbEntity
  8
1
  6
Continuous
 62
     7
100
AcDbLine
 10
758.99962
 20
289.581747
 30
0.0
 11
759.0003799999999
 21
280.4165959999999
 31
0.0
  0
LINE
  5
2E6
330
1E
100
AcDbEntity
  8
1
  6
Continuous
 62
     7
100
AcDbLine
 10
760.0319009999999
 20
278.6302909999999
 30
0.0
 11
767.9695339999999
 21
274.048373
 31
0.0
  0
LINE
  5
2E7
330
1E
100
AcDbEntity
  8
1
  6
Continuous
 62
     7
100
AcDbLine
 10
770.03228
 20
274.048544
 30
0.0
 11
777.9691539999999
 21
278.631777
 31
0.0
  0
CIRCLE
  5
2E8
330
1E
100
AcDbEntity
  8
1
  6
Continuous
 62
     7
100
AcDbCircle
 10
769.0
 20
285.0016569999999
 30
0.0
 40
5.5
  0
CIRCLE
  5
2E9
330
1E
100
AcDbEntity
  8
1
  6
Continuous
 62
     7
100
AcDbCircle
 10
769.0
 20
285.0
 30
0.0
 40
5.0
  0
LINE
  5
2EA
330
1E
100
AcDbEntity
  8
1
  6
Continuous
 62
     7
100
AcDbLine
 10
758.013129
 20
394.0
 30
0.0
 11
758.013129
 21
391.0
 31
0.0
  0
LINE
  5
2EB
330
1E
100
AcDbEntity
  8
1
  6
Continuous
 62
     7
100
AcDbLine
 10
780.013129
 20
394.0
 30
0.0
 11
780.013129
 21
391.0
 31
0.0
  0
LINE
  5
2EC
330
1E
100
AcDbEntity
  8
1
  6
Continuous
 62
     7
100
AcDbLine
 10
758.013129
 20
391.0
 30
0.0
 11
759.013129
 21
391.0
 31
0.0
  0
LINE
  5
2ED
330
1E
100
AcDbEntity
  8
1
  6
Continuous
 62
     7
100
AcDbLine
 10
760.0445019999999
 20
391.0
 30
0.0
 11
767.9817559999999
 21
391.0
 31
0.0
  0
LINE
  5
2EE
330
1E
100
AcDbEntity
  8
1
  6
Continuous
 62
     7
100
AcDbLine
 10
770.044502
 20
391.0
 30
0.0
 11
777.9817559999998
 21
391.0
 31
0.0
  0
LINE
  5
2EF
330
1E
100
AcDbEntity
  8
1
  6
Continuous
 62
     7
100
AcDbLine
 10
779.013129
 20
391.0
 30
0.0
 11
780.013129
 21
391.0
 31
0.0
  0
LINE
  5
2F0
330
1E
100
AcDbEntity
  8
1
  6
Continuous
 62
     7
100
AcDbLine
 10
758.013129
 20
394.0
 30
0.0
 11
780.013129
 21
394.0
 31
0.0
  0
LINE
  5
2F1
330
1E
100
AcDbEntity
  8
1
  6
Continuous
 62
     7
100
AcDbLine
 10
759.013129
 20
391.0
 30
0.0
 11
759.013129
 21
382.0
 31
0.0
  0
LINE
  5
2F2
330
1E
100
AcDbEntity
  8
1
  6
Continuous
 62
     7
100
AcDbLine
 10
760.0445019999999
 20
382.0
 30
0.0
 11
760.0445019999999
 21
391.0
 31
0.0
  0
LINE
  5
2F3
330
1E
100
AcDbEntity
  8
1
  6
Continuous
 62
     7
100
AcDbLine
 10
767.9817559999999
 20
391.0
 30
0.0
 11
767.9817559999999
 21
382.0
 31
0.0
  0
LINE
  5
2F4
330
1E
100
AcDbEntity
  8
1
  6
Continuous
 62
     7
100
AcDbLine
 10
770.044502
 20
391.0
 30
0.0
 11
770.044502
 21
382.0
 31
0.0
  0
LINE
  5
2F5
330
1E
100
AcDbEntity
  8
1
  6
Continuous
 62
     7
100
AcDbLine
 10
777.9817559999998
 20
391.0
 30
0.0
 11
777.9817559999998
 21
382.0
 31
0.0
  0
LINE
  5
2F6
330
1E
100
AcDbEntity
  8
1
  6
Continuous
 62
     7
100
AcDbLine
 10
779.013129
 20
382.0
 30
0.0
 11
779.013129
 21
391.0
 31
0.0
  0
ARC
  5
2F7
330
1E
100
AcDbEntity
  8
1
  6
Continuous
 62
     7
100
AcDbCircle
 10
764.013129
 20
389.374999
 30
0.0
 40
8.374999
100
AcDbArc
 50
241.714462
 51
298.2855379999999
  0
ARC
  5
2F8
330
1E
100
AcDbEntity
  8
1
  6
Continuous
 62
     7
100
AcDbCircle
 10
774.013129
 20
389.374999
 30
0.0
 40
8.374999
100
AcDbArc
 50
241.714462
 51
298.2855379999999
  0
ARC
  5
2F9
330
1E
100
AcDbEntity
  8
1
  6
Continuous
 62
     7
100
AcDbCircle
 10
759.528129
 20
382.2920419999999
 30
0.0
 40
0.592042
100
AcDbArc
 50
209.5563229999999
 51
330.443677
  0
ARC
  5
2FA
330
1E
100
AcDbEntity
  8
1
  6
Continuous
 62
     7
100
AcDbCircle
 10
769.013129
 20
383.622881
 30
0.0
 40
1.922881
100
AcDbArc
 50
237.5632289999999
 51
302.436771
  0
ARC
  5
2FB
330
1E
100
AcDbEntity
  8
1
  6
Continuous
 62
     7
100
AcDbCircle
 10
778.496756
 20
382.2920419999999
 30
0.0
 40
0.592042
100
AcDbArc
 50
209.5563229999999
 51
330.443677
  0
LINE
  5
2FC
330
1E
100
AcDbEntity
  8
1
  6
Continuous
 62
     7
100
AcDbLine
 10
759.013129
 20
382.0
 30
0.0
 11
763.511756
 21
376.5
 31
0.0
  0
LINE
  5
2FD
330
1E
100
AcDbEntity
  8
1
  6
Continuous
 62
     7
100
AcDbLine
 10
763.511756
 20
376.5
 30
0.0
 11
774.5117559999999
 21
376.5
 31
0.0
  0
LINE
  5
2FE
330
1E
100
AcDbEntity
  8
1
  6
Continuous
 62
     7
100
AcDbLine
 10
774.5117559999999
 20
376.5
 30
0.0
 11
779.013129
 21
382.0
 31
0.0
  0
LINE
  5
2FF
330
1E
100
AcDbEntity
  8
1
  6
Continuous
 62
     7
100
AcDbLine
 10
758.013129
 20
400.0
 30
0.0
 11
758.013129
 21
397.5
 31
0.0
  0
LINE
  5
300
330
1E
100
AcDbEntity
  8
1
  6
Continuous
 62
     7
100
AcDbLine
 10
758.013129
 20
397.5
 30
0.0
 11
780.013129
 21
397.5
 31
0.0
  0
LINE
  5
301
330
1E
100
AcDbEntity
  8
1
  6
Continuous
 62
     7
100
AcDbLine
 10
780.013129
 20
397.5
 30
0.0
 11
780.013129
 21
400.0
 31
0.0
  0
LINE
  5
302
330
1E
100
AcDbEntity
  8
1
  6
Continuous
 62
     7
100
AcDbLine
 10
761.013129
 20
394.0
 30
0.0
 11
761.013129
 21
397.5
 31
0.0
  0
LINE
  5
303
330
1E
100
AcDbEntity
  8
1
  6
Continuous
 62
     7
100
AcDbLine
 10
777.0131290000001
 20
394.0
 30
0.0
 11
777.0131290000001
 21
397.5
 31
0.0
  0
LINE
  5
304
330
1E
100
AcDbEntity
  8
1
  6
Continuous
 62
     7
100
AcDbLine
 10
904.000828
 20
394.0
 30
0.0
 11
925.999172
 21
394.0
 31
0.0
  0
LINE
  5
305
330
1E
100
AcDbEntity
  8
1
  6
Continuous
 62
     7
100
AcDbLine
 10
904.000828
 20
394.0
 30
0.0
 11
904.000828
 21
382.0
 31
0.0
  0
LINE
  5
306
330
1E
100
AcDbEntity
  8
1
  6
Continuous
 62
     7
100
AcDbLine
 10
925.999172
 20
394.0
 30
0.0
 11
925.999172
 21
382.0
 31
0.0
  0
LINE
  5
307
330
1E
100
AcDbEntity
  8
1
  6
Continuous
 62
     7
100
AcDbLine
 10
921.368966
 20
391.0
 30
0.0
 11
921.368966
 21
382.0
 31
0.0
  0
LINE
  5
308
330
1E
100
AcDbEntity
  8
1
  6
Continuous
 62
     7
100
AcDbLine
 10
908.631034
 20
391.0
 30
0.0
 11
908.631034
 21
382.0
 31
0.0
  0
LINE
  5
309
330
1E
100
AcDbEntity
  8
1
  6
Continuous
 62
     7
100
AcDbLine
 10
910.417424
 20
382.0
 30
0.0
 11
910.417424
 21
391.0
 31
0.0
  0
LINE
  5
30A
330
1E
100
AcDbEntity
  8
1
  6
Continuous
 62
     7
100
AcDbLine
 10
919.5825759999999
 20
391.0
 30
0.0
 11
919.5825759999999
 21
382.0
 31
0.0
  0
ARC
  5
30B
330
1E
100
AcDbEntity
  8
1
  6
Continuous
 62
     7
100
AcDbCircle
 10
915.0
 20
392.0
 30
0.0
 40
11.0
100
AcDbArc
 50
245.380022
 51
294.619978
  0
ARC
  5
30C
330
1E
100
AcDbEntity
  8
1
  6
Continuous
 62
     7
100
AcDbCircle
 10
906.3158279999999
 20
384.1796129999999
 30
0.0
 40
3.179613
100
AcDbArc
 50
223.2746479999999
 51
316.725352
  0
ARC
  5
30D
330
1E
100
AcDbEntity
  8
1
  6
Continuous
 62
     7
100
AcDbCircle
 10
923.6839660000001
 20
384.1796129999999
 30
0.0
 40
3.179613
100
AcDbArc
 50
223.2746479999999
 51
316.725352
  0
ARC
  5
30E
330
1E
100
AcDbEntity
  8
1
  6
Continuous
 62
     7
100
AcDbCircle
 10
909.526864
 20
383.1881309999999
 30
0.0
 40
1.488132
100
AcDbArc
 50
232.97803
 51
306.922153
  0
ARC
  5
30F
330
1E
100
AcDbEntity
  8
1
  6
Continuous
 62
     7
100
AcDbCircle
 10
920.4786109999998
 20
383.1881309999999
 30
0.0
 40
1.488132
100
AcDbArc
 50
232.97803
 51
306.922153
  0
LINE
  5
310
330
1E
100
AcDbEntity
  8
1
  6
Continuous
 62
     7
100
AcDbLine
 10
903.9991720000001
 20
382.0
 30
0.0
 11
909.4991720000001
 21
376.5
 31
0.0
  0
LINE
  5
311
330
1E
100
AcDbEntity
  8
1
  6
Continuous
 62
     7
100
AcDbLine
 10
909.4991720000001
 20
376.5
 30
0.0
 11
920.499172
 21
376.5
 31
0.0
  0
LINE
  5
312
330
1E
100
AcDbEntity
  8
1
  6
Continuous
 62
     7
100
AcDbLine
 10
920.499172
 20
376.5
 30
0.0
 11
925.998966
 21
382.0
 31
0.0
  0
LINE
  5
313
330
1E
100
AcDbEntity
  8
1
  6
Continuous
 62
     7
100
AcDbLine
 10
907.0
 20
394.0
 30
0.0
 11
907.0
 21
397.0
 31
0.0
  0
LINE
  5
314
330
1E
100
AcDbEntity
  8
1
  6
Continuous
 62
     7
100
AcDbLine
 10
923.0
 20
394.0
 30
0.0
 11
923.0
 21
397.0
 31
0.0
  0
LINE
  5
315
330
1E
100
AcDbEntity
  8
1
  6
Continuous
 62
     7
100
AcDbLine
 10
904.000828
 20
391.0
 30
0.0
 11
908.631034
 21
391.0
 31
0.0
  0
LINE
  5
316
330
1E
100
AcDbEntity
  8
1
  6
Continuous
 62
     7
100
AcDbLine
 10
910.417424
 20
391.0
 30
0.0
 11
919.5825759999999
 21
391.0
 31
0.0
  0
LINE
  5
317
330
1E
100
AcDbEntity
  8
1
  6
Continuous
 62
     7
100
AcDbLine
 10
921.368966
 20
391.0
 30
0.0
 11
925.999172
 21
391.0
 31
0.0
  0
LINE
  5
318
330
1E
100
AcDbEntity
  8
1
  6
Continuous
 62
     7
100
AcDbLine
 10
984.9642869999998
 20
397.0
 30
0.0
 11
977.250002
 21
391.0
 31
0.0
  0
LINE
  5
319
330
1E
100
AcDbEntity
  8
1
  6
Continuous
 62
     7
100
AcDbLine
 10
977.250002
 20
391.0
 30
0.0
 11
925.999172
 21
391.0
 31
0.0
  0
LINE
  5
31A
330
1E
100
AcDbEntity
  8
1
  6
Continuous
 62
     7
100
AcDbLine
 10
291.368966
 20
391.0
 30
0.0
 11
291.368966
 21
382.0
 31
0.0
  0
LINE
  5
31B
330
1E
100
AcDbEntity
  8
1
  6
Continuous
 62
     7
100
AcDbLine
 10
278.6310339999999
 20
391.0
 30
0.0
 11
278.6310339999999
 21
382.0
 31
0.0
  0
LINE
  5
31C
330
1E
100
AcDbEntity
  8
1
  6
Continuous
 62
     7
100
AcDbLine
 10
280.417424
 20
382.0
 30
0.0
 11
280.417424
 21
391.0
 31
0.0
  0
LINE
  5
31D
330
1E
100
AcDbEntity
  8
1
  6
Continuous
 62
     7
100
AcDbLine
 10
289.5825759999999
 20
391.0
 30
0.0
 11
289.5825759999999
 21
382.0
 31
0.0
  0
ARC
  5
31E
330
1E
100
AcDbEntity
  8
1
  6
Continuous
 62
     7
100
AcDbCircle
 10
285.0
 20
392.0
 30
0.0
 40
11.0
100
AcDbArc
 50
245.380022
 51
294.619978
  0
ARC
  5
31F
330
1E
100
AcDbEntity
  8
1
  6
Continuous
 62
     7
100
AcDbCircle
 10
276.3158279999999
 20
384.1796129999999
 30
0.0
 40
3.179613
100
AcDbArc
 50
223.2746479999999
 51
316.725352
  0
ARC
  5
320
330
1E
100
AcDbEntity
  8
1
  6
Continuous
 62
     7
100
AcDbCircle
 10
293.683966
 20
384.1796129999999
 30
0.0
 40
3.179613
100
AcDbArc
 50
223.2746479999999
 51
316.725352
  0
ARC
  5
321
330
1E
100
AcDbEntity
  8
1
  6
Continuous
 62
     7
100
AcDbCircle
 10
279.5268639999999
 20
383.1881309999999
 30
0.0
 40
1.488132
100
AcDbArc
 50
232.97803
 51
306.922153
  0
ARC
  5
322
330
1E
100
AcDbEntity
  8
1
  6
Continuous
 62
     7
100
AcDbCircle
 10
290.4786109999999
 20
383.1881309999999
 30
0.0
 40
1.488132
100
AcDbArc
 50
232.97803
 51
306.922153
  0
LINE
  5
323
330
1E
100
AcDbEntity
  8
1
  6
Continuous
 62
     7
100
AcDbLine
 10
273.999172
 20
382.0
 30
0.0
 11
279.499172
 21
376.5
 31
0.0
  0
LINE
  5
324
330
1E
100
AcDbEntity
  8
1
  6
Continuous
 62
     7
100
AcDbLine
 10
279.499172
 20
376.5
 30
0.0
 11
290.499172
 21
376.5
 31
0.0
  0
LINE
  5
325
330
1E
100
AcDbEntity
  8
1
  6
Continuous
 62
     7
100
AcDbLine
 10
290.499172
 20
376.5
 30
0.0
 11
295.998966
 21
382.0
 31
0.0
  0
LINE
  5
326
330
1E
100
AcDbEntity
  8
1
  6
Continuous
 62
     7
100
AcDbLine
 10
274.0008279999999
 20
382.0
 30
0.0
 11
274.0008279999999
 21
391.0
 31
0.0
  0
LINE
  5
327
330
1E
100
AcDbEntity
  8
1
  6
Continuous
 62
     7
100
AcDbLine
 10
295.998966
 20
382.0
 30
0.0
 11
295.999172
 21
391.0
 31
0.0
  0
LINE
  5
328
330
1E
100
AcDbEntity
  8
1
  6
Continuous
 62
     7
100
AcDbLine
 10
277.2499999999999
 20
391.0
 30
0.0
 11
295.999172
 21
391.0
 31
0.0
  0
LINE
  5
329
330
1E
100
AcDbEntity
  8
1
  6
Continuous
 62
     7
100
AcDbLine
 10
295.999172
 20
391.0
 30
0.0
 11
295.999172
 21
394.0
 31
0.0
  0
LINE
  5
32A
330
1E
100
AcDbEntity
  8
1
  6
Continuous
 62
     7
100
AcDbLine
 10
295.999172
 20
394.0
 30
0.0
 11
281.107142
 21
394.0
 31
0.0
  0
LINE
  5
32B
330
1E
100
AcDbEntity
  8
1
  6
Continuous
 62
     7
100
AcDbLine
 10
293.0
 20
394.0
 30
0.0
 11
293.0
 21
397.0
 31
0.0
  0
DIMENSION
  5
331
330
1E
100
AcDbEntity
  8
1
  6
Continuous
 62
     7
100
AcDbDimension
  2
*D12
 10
669.0
 20
230.0
 30
0.0
 11
646.4999999999999
 21
230.0
 31
0.0
 70
    32
  1
45
 71
     5
 42
45.0
100
AcDbAlignedDimension
 13
624.0
 23
232.0
 33
0.0
 14
669.0
 24
232.0
 34
0.0
100
AcDbRotatedDimension
  0
DIMENSION
  5
33D
330
1E
100
AcDbEntity
  8
1
  6
Continuous
 62
     7
100
AcDbDimension
  2
*D13
 10
689.0
 20
230.0
 30
0.0
 11
679.0
 21
230.0
 31
0.0
 70
    32
  1
20
 71
     5
 42
20.0
100
AcDbAlignedDimension
 13
669.0
 23
232.0
 33
0.0
 14
689.0
 24
232.0
 34
0.0
100
AcDbRotatedDimension
  0
LINE
  5
351
330
1E
100
AcDbEntity
  8
0
100
AcDbLine
 10
338.0
 20
400.0
 30
0.0
 11
360.0
 21
400.0
 31
0.0
  0
LINE
  5
352
330
1E
100
AcDbEntity
  8
0
100
AcDbLine
 10
338.0
 20
504.0
 30
0.0
 11
360.0
 21
504.0
 31
0.0
  0
LINE
  5
353
330
1E
100
AcDbEntity
  8
0
100
AcDbLine
 10
360.0
 20
401.0
 30
0.0
 11
360.0
 21
451.82
 31
0.0
  0
LINE
  5
354
330
1E
100
AcDbEntity
  8
0
100
AcDbLine
 10
360.0
 20
503.0
 30
0.0
 11
360.0
 21
452.1799999999999
 31
0.0
  0
SOLID
  5
355
330
1E
100
AcDbEntity
  8
0
100
AcDbTrace
 10
359.8333333333333
 20
401.0
 30
0.0
 11
360.1666666666667
 21
401.0
 31
0.0
 12
360.0
 22
400.0
 32
0.0
 13
360.0
 23
400.0
 33
0.0
  0
SOLID
  5
356
330
1E
100
AcDbEntity
  8
0
100
AcDbTrace
 10
359.8333333333333
 20
503.0
 30
0.0
 11
360.1666666666667
 21
503.0
 31
0.0
 12
360.0
 22
504.0
 32
0.0
 13
360.0
 23
504.0
 33
0.0
  0
MTEXT
  5
357
330
1E
100
AcDbEntity
  8
0
100
AcDbMText
 10
356.4632206680462
 20
452.0
 30
0.0
 40
5.0
 41
0.0
 71
     5
 72
     1
  1
{\Ftxt.shx,bigfont.shx;104}
 11
0.0000000000000001
 21
1.0
 31
0.0
 73
     1
 44
1.0
  0
LINE
  5
363
330
1E
100
AcDbEntity
  8
0
100
AcDbLine
 10
178.0
 20
518.0
 30
0.0
 11
178.0
 21
540.0
 31
0.0
  0
LINE
  5
364
330
1E
100
AcDbEntity
  8
0
100
AcDbLine
 10
322.0
 20
518.0
 30
0.0
 11
322.0
 21
540.0
 31
0.0
  0
LINE
  5
365
330
1E
100
AcDbEntity
  8
0
100
AcDbLine
 10
179.0
 20
540.0
 30
0.0
 11
249.6999999999999
 21
540.0
 31
0.0
  0
LINE
  5
366
330
1E
100
AcDbEntity
  8
0
100
AcDbLine
 10
321.0
 20
540.0
 30
0.0
 11
250.3
 21
540.0
 31
0.0
  0
SOLID
  5
367
330
1E
100
AcDbEntity
  8
0
100
AcDbTrace
 10
179.0
 20
540.1666666666666
 30
0.0
 11
179.0
 21
539.8333333333333
 31
0.0
 12
178.0
 22
540.0
 32
0.0
 13
178.0
 23
540.0
 33
0.0
  0
SOLID
  5
368
330
1E
100
AcDbEntity
  8
0
100
AcDbTrace
 10
321.0
 20
540.1666666666666
 30
0.0
 11
321.0
 21
539.8333333333333
 31
0.0
 12
322.0
 22
540.0
 32
0.0
 13
322.0
 23
540.0
 33
0.0
  0
MTEXT
  5
369
330
1E
100
AcDbEntity
  8
0
100
AcDbMText
 10
250.0
 20
544.5892217146133
 30
0.0
 40
5.0
 41
0.0
 71
     5
 72
     1
  1
{\Ftxt.shx,bigfont.shx;144}
 73
     1
 44
1.0
  0
LINE
  5
36C
330
1E
100
AcDbEntity
  8
0
100
AcDbLine
 10
209.0
 20
430.0
 30
0.0
 11
249.7599999999999
 21
430.0
 31
0.0
  0
LINE
  5
36D
330
1E
100
AcDbEntity
  8
0
100
AcDbLine
 10
291.0
 20
430.0
 30
0.0
 11
250.24
 21
430.0
 31
0.0
  0
SOLID
  5
36E
330
1E
100
AcDbEntity
  8
0
100
AcDbTrace
 10
209.0
 20
430.1666666666666
 30
0.0
 11
209.0
 21
429.8333333333332
 31
0.0
 12
208.0
 22
430.0
 32
0.0
 13
208.0
 23
430.0
 33
0.0
  0
SOLID
  5
36F
330
1E
100
AcDbEntity
  8
0
100
AcDbTrace
 10
291.0
 20
430.1666666666666
 30
0.0
 11
291.0
 21
429.8333333333332
 31
0.0
 12
292.0
 22
430.0
 32
0.0
 13
292.0
 23
430.0
 33
0.0
  0
MTEXT
  5
370
330
1E
100
AcDbEntity
  8
0
100
AcDbMText
 10
250.0
 20
434.605885524867
 30
0.0
 40
5.0
 41
0.0
 71
     5
 72
     1
  1
{\Ftxt.shx,bigfont.shx;84}
 73
     1
 44
1.0
  0
LINE
  5
373
330
1E
100
AcDbEntity
  8
0
100
AcDbLine
 10
280.0
 20
418.5
 30
0.0
 11
280.0
 21
447.82
 31
0.0
  0
LINE
  5
374
330
1E
100
AcDbEntity
  8
0
100
AcDbLine
 10
280.0
 20
477.5
 30
0.0
 11
280.0
 21
448.1799999999999
 31
0.0
  0
SOLID
  5
375
330
1E
100
AcDbEntity
  8
0
100
AcDbTrace
 10
279.8333333333333
 20
418.5
 30
0.0
 11
280.1666666666666
 21
418.5
 31
0.0
 12
280.0
 22
417.4999999999999
 32
0.0
 13
280.0
 23
417.4999999999999
 33
0.0
  0
SOLID
  5
376
330
1E
100
AcDbEntity
  8
0
100
AcDbTrace
 10
279.8333333333333
 20
477.5
 30
0.0
 11
280.1666666666666
 21
477.5
 31
0.0
 12
280.0
 22
478.5
 32
0.0
 13
280.0
 23
478.5
 33
0.0
  0
MTEXT
  5
377
330
1E
100
AcDbEntity
  8
0
100
AcDbMText
 10
275.5631770262657
 20
448.0
 30
0.0
 40
5.0
 41
0.0
 71
     5
 72
     1
  1
{\Ftxt.shx,bigfont.shx;61}
 11
0.0000000000000001
 21
1.0
 31
0.0
 73
     1
 44
1.0
  0
LINE
  5
37C
330
1E
100
AcDbEntity
  8
0
100
AcDbLine
 10
385.0
 20
518.0
 30
0.0
 11
385.0
 21
540.0
 31
0.0
  0
LINE
  5
37D
330
1E
100
AcDbEntity
  8
0
100
AcDbLine
 10
822.0
 20
518.0
 30
0.0
 11
822.0
 21
540.0
 31
0.0
  0
LINE
  5
37E
330
1E
100
AcDbEntity
  8
0
100
AcDbLine
 10
386.0
 20
540.0
 30
0.0
 11
603.1699999999999
 21
540.0
 31
0.0
  0
LINE
  5
37F
330
1E
100
AcDbEntity
  8
0
100
AcDbLine
 10
821.0
 20
540.0
 30
0.0
 11
603.83
 21
540.0
 31
0.0
  0
SOLID
  5
380
330
1E
100
AcDbEntity
  8
0
100
AcDbTrace
 10
386.0
 20
540.1666666666666
 30
0.0
 11
386.0
 21
539.8333333333333
 31
0.0
 12
385.0
 22
540.0
 32
0.0
 13
385.0
 23
540.0
 33
0.0
  0
SOLID
  5
381
330
1E
100
AcDbEntity
  8
0
100
AcDbTrace
 10
821.0
 20
540.1666666666666
 30
0.0
 11
821.0
 21
539.8333333333333
 31
0.0
 12
822.0
 22
540.0
 32
0.0
 13
822.0
 23
540.0
 33
0.0
  0
MTEXT
  5
382
330
1E
100
AcDbEntity
  8
0
100
AcDbMText
 10
603.5
 20
544.1672920753876
 30
0.0
 40
5.0
 41
0.0
 71
     5
 72
     1
  1
{\Ftxt.shx,bigfont.shx;437}
 73
     1
 44
1.0
  0
LEADER
  5
38B
330
1E
100
AcDbEntity
  8
0
100
AcDbLeader
  3
Standard
 40
0.18
 41
0.9599999999999999
 76
     3
 10
670.2871039999999
 20
253.254745
 30
0.0
 10
706.8515695248057
 20
302.4866988067392
 30
0.0
 10
747.8436530747085
 20
302.5308426586266
 30
0.0
213
0.0
223
-0.09
233
0.0
1001
ACAD
1000
DSTYLE
1002
{
1070
   147
1040
0.09
1070
    77
1070
     0
1070
    41
1040
1.0
1070
    42
1040
0.0
1070
    43
1040
0.5
1070
    44
1040
0.0
1070
   141
1040
0.0
1070
   171
1070
     0
1002
}
  0
MTEXT
  5
38D
330
1E
100
AcDbEntity
  8
0
100
AcDbMText
 10
707.6648865348706
 20
307.9444834198284
 30
0.0
 40
5.0
 41
25.91
 71
     1
 72
     5
  1
{\Ftxt.shx,bigfont.shx;3-U1/4}
 73
     1
 44
1.0
  0
MTEXT
  5
38F
330
1E
100
AcDbEntity
  8
0
100
AcDbMText
 10
736.4267343068545
 20
308.5297419862167
 30
0.0
 40
6.0
 41
21.65999999999999
 71
     1
 72
     5
  1
{\Ftxt.shx,bigfont.shx;ﾀｯﾌﾟ}
 73
     1
 44
1.0
  0
MTEXT
  5
397
330
1E
100
AcDbEntity
  8
0
100
AcDbMText
 10
909.0590737912066
 20
248.6804166423908
 30
0.0
 40
6.0
 41
36.13454023864827
 71
     1
 72
     5
  1
{\Ftxt.shx,bigfont.shx;内部寸法}
 73
     1
 44
1.0
  0
MTEXT
  5
3A0
330
1E
100
AcDbEntity
  8
0
100
AcDbMText
 10
909.2363800155036
 20
234.2999061050825
 30
0.0
 40
6.0
 41
127.8399999999999
 71
     1
 72
     5
  1
{\Ftxt.shx,bigfont.shx;114(W) x 84(H) x 370(L)}
 73
     1
 44
1.0
  0
ENDSEC
  0
SECTION
  2
OBJECTS
  0
DICTIONARY
  5
C
330
0
100
AcDbDictionary
281
     1
  3
ACAD_GROUP
350
D
  3
ACAD_PLOTSTYLENAME
350
E
  3
ACAD_MLINESTYLE
350
16
  3
ACAD_PLOTSETTINGS
350
18
  3
ACAD_LAYOUT
350
19
  0
DICTIONARY
  5
D
102
{ACAD_REACTORS
330
C
102
}
330
C
100
AcDbDictionary
281
     1
  0
ACDBDICTIONARYWDFLT
  5
E
102
{ACAD_REACTORS
330
C
102
}
330
C
100
AcDbDictionary
281
     1
  3
Normal
350
F
100
AcDbDictionaryWithDefault
340
F
  0
DICTIONARY
  5
16
102
{ACAD_REACTORS
330
C
102
}
330
C
100
AcDbDictionary
281
     1
  3
Standard
350
17
  0
DICTIONARY
  5
18
102
{ACAD_REACTORS
330
C
102
}
330
C
100
AcDbDictionary
281
     1
  0
DICTIONARY
  5
19
102
{ACAD_REACTORS
330
C
102
}
330
C
100
AcDbDictionary
281
     1
  3
ﾚｲｱｳﾄ1
350
1D
  3
Model
350
21
  0
ACDBPLACEHOLDER
  5
F
102
{ACAD_REACTORS
330
E
102
}
330
E
  0
MLINESTYLE
  5
17
102
{ACAD_REACTORS
330
16
102
}
330
16
100
AcDbMlineStyle
  2
STANDARD
 70
     0
  3

 62
   256
 51
90.0
 52
90.0
 71
     2
 49
0.5
 62
   256
  6
BYLAYER
 49
-0.5
 62
   256
  6
BYLAYER
  0
LAYOUT
  5
1D
102
{ACAD_REACTORS
330
19
102
}
330
19
100
AcDbPlotSettings
  1

  2
自動 Canon LASER SHOT LBP-1820 (merit 上)
  4

  6

 40
0.0
 41
0.0
 42
0.0
 43
0.0
 44
0.0
 45
0.0
 46
0.0
 47
0.0
 48
0.0
 49
0.0
140
0.0
141
0.0
142
1.0
143
1.0
 70
   688
 72
     0
 73
     0
 74
     5
  7

 75
    16
147
1.0
148
0.0
149
0.0
100
AcDbLayout
  1
ﾚｲｱｳﾄ1
 70
     1
 71
     1
 10
0.0
 20
0.0
 11
12.0
 21
9.0
 12
0.0
 22
0.0
 32
0.0
 14
0.0
 24
0.0
 34
0.0
 15
297.0
 25
210.0
 35
0.0
146
0.0
 13
0.0
 23
0.0
 33
0.0
 16
1.0
 26
0.0
 36
0.0
 17
0.0
 27
1.0
 37
0.0
 76
     0
330
1A
  0
LAYOUT
  5
21
102
{ACAD_REACTORS
330
19
102
}
330
19
100
AcDbPlotSettings
  1

  2
自動 Canon LASER SHOT LBP-1820 (merit 上)
  4

  6

 40
0.0
 41
0.0
 42
0.0
 43
0.0
 44
0.0
 45
0.0
 46
0.0
 47
0.0
 48
0.0
 49
0.0
140
0.0
141
0.0
142
1.0
143
1.0
 70
  1712
 72
     0
 73
     0
 74
     0
  7

 75
     0
147
1.0
148
0.0
149
0.0
100
AcDbLayout
  1
Model
 70
     1
 71
     0
 10
0.0
 20
0.0
 11
12.0
 21
9.0
 12
0.0
 22
0.0
 32
0.0
 14
0.0
 24
0.0
 34
0.0
 15
0.0
 25
0.0
 35
0.0
146
0.0
 13
0.0
 23
0.0
 33
0.0
 16
1.0
 26
0.0
 36
0.0
 17
0.0
 27
1.0
 37
0.0
 76
     0
330
1E
  0
ENDSEC
  0
EOF
