  0
SECTION
  2
HEADER
  9
$ACADVER
  1
AC1015
  9
$ACADMAINTVER
 70
     6
  9
$DWGCODEPAGE
  3
ANSI_932
  9
$INSBASE
 10
0.0
 20
0.0
 30
0.0
  9
$EXTMIN
 10
133.1158327846026
 20
93.50002062402639
 30
0.0
  9
$EXTMAX
 10
541.0503784692032
 20
936.9949431475205
 30
0.0
  9
$LIMMIN
 10
0.0
 20
0.0
  9
$LIMMAX
 10
420.0
 20
594.0
  9
$ORTHOMODE
 70
     1
  9
$REGENMODE
 70
     1
  9
$FILLMODE
 70
     1
  9
$QTEXTMODE
 70
     0
  9
$MIRRTEXT
 70
     1
  9
$LTSCALE
 40
0.5
  9
$ATTMODE
 70
     1
  9
$TEXTSIZE
 40
0.2
  9
$TRACEWID
 40
0.05
  9
$TEXTSTYLE
  7
STANDARD
  9
$CLAYER
  8
0
  9
$CELTYPE
  6
ByLayer
  9
$CECOLOR
 62
   256
  9
$CELTSCALE
 40
1.0
  9
$DISPSILH
 70
     0
  9
$DIMSCALE
 40
1.0
  9
$DIMASZ
 40
1.0
  9
$DIMEXO
 40
0.0
  9
$DIMDLI
 40
0.5
  9
$DIMRND
 40
0.0
  9
$DIMDLE
 40
0.0
  9
$DIMEXE
 40
0.0
  9
$DIMTP
 40
0.0
  9
$DIMTM
 40
0.0
  9
$DIMTXT
 40
0.18
  9
$DIMCEN
 40
0.0
  9
$DIMTSZ
 40
0.0
  9
$DIMTOL
 70
     0
  9
$DIMLIM
 70
     0
  9
$DIMTIH
 70
     1
  9
$DIMTOH
 70
     1
  9
$DIMSE1
 70
     0
  9
$DIMSE2
 70
     0
  9
$DIMTAD
 70
     0
  9
$DIMZIN
 70
     0
  9
$DIMBLK
  1

  9
$DIMASO
 70
     0
  9
$DIMSHO
 70
     0
  9
$DIMPOST
  1

  9
$DIMAPOST
  1

  9
$DIMALT
 70
     0
  9
$DIMALTD
 70
     0
  9
$DIMALTF
 40
25.4
  9
$DIMLFAC
 40
1.0
  9
$DIMTOFL
 70
     0
  9
$DIMTVP
 40
0.0
  9
$DIMTIX
 70
     0
  9
$DIMSOXD
 70
     0
  9
$DIMSAH
 70
     0
  9
$DIMBLK1
  1

  9
$DIMBLK2
  1

  9
$DIMSTYLE
  2
Standard
  9
$DIMCLRD
 70
     0
  9
$DIMCLRE
 70
     0
  9
$DIMCLRT
 70
     0
  9
$DIMTFAC
 40
1.0
  9
$DIMGAP
 40
0.09
  9
$DIMJUST
 70
     0
  9
$DIMSD1
 70
     0
  9
$DIMSD2
 70
     0
  9
$DIMTOLJ
 70
     1
  9
$DIMTZIN
 70
     0
  9
$DIMALTZ
 70
     0
  9
$DIMALTTZ
 70
     0
  9
$DIMUPT
 70
     0
  9
$DIMDEC
 70
     4
  9
$DIMTDEC
 70
     4
  9
$DIMALTU
 70
     2
  9
$DIMALTTD
 70
     2
  9
$DIMTXSTY
  7
STANDARD
  9
$DIMAUNIT
 70
     0
  9
$DIMADEC
 70
     0
  9
$DIMALTRND
 40
0.0
  9
$DIMAZIN
 70
     0
  9
$DIMDSEP
 70
    46
  9
$DIMATFIT
 70
     3
  9
$DIMFRAC
 70
     0
  9
$DIMLDRBLK
  1

  9
$DIMLUNIT
 70
     2
  9
$DIMLWD
 70
    -2
  9
$DIMLWE
 70
    -2
  9
$DIMTMOVE
 70
     0
  9
$LUNITS
 70
     2
  9
$LUPREC
 70
     2
  9
$SKETCHINC
 40
0.0
  9
$FILLETRAD
 40
0.0
  9
$AUNITS
 70
     1
  9
$AUPREC
 70
     2
  9
$MENU
  1
ACAD
  9
$ELEVATION
 40
0.0
  9
$PELEVATION
 40
0.0
  9
$THICKNESS
 40
0.0
  9
$LIMCHECK
 70
     1
  9
$CHAMFERA
 40
0.0
  9
$CHAMFERB
 40
0.0
  9
$CHAMFERC
 40
0.0
  9
$CHAMFERD
 40
0.0
  9
$SKPOLY
 70
     0
  9
$TDCREATE
 40
2311945.642538681
  9
$TDUCREATE
 40
2311945.267538680
  9
$TDUPDATE
 40
2454796.459754583
  9
$TDUUPDATE
 40
2454796.084754583
  9
$TDINDWG
 40
0.0349075926
  9
$TDUSRTIMER
 40
0.0348882292
  9
$USRTIMER
 70
     1
  9
$ANGBASE
 50
0.0
  9
$ANGDIR
 70
     0
  9
$PDMODE
 70
     0
  9
$PDSIZE
 40
0.0
  9
$PLINEWID
 40
0.0
  9
$SPLFRAME
 70
     0
  9
$SPLINETYPE
 70
     6
  9
$SPLINESEGS
 70
     8
  9
$HANDSEED
  5
37E
  9
$SURFTAB1
 70
     6
  9
$SURFTAB2
 70
     6
  9
$SURFTYPE
 70
     6
  9
$SURFU
 70
     6
  9
$SURFV
 70
     6
  9
$UCSBASE
  2

  9
$UCSNAME
  2

  9
$UCSORG
 10
0.0
 20
0.0
 30
0.0
  9
$UCSXDIR
 10
1.0
 20
0.0
 30
0.0
  9
$UCSYDIR
 10
0.0
 20
1.0
 30
0.0
  9
$UCSORTHOREF
  2

  9
$UCSORTHOVIEW
 70
     0
  9
$UCSORGTOP
 10
0.0
 20
0.0
 30
0.0
  9
$UCSORGBOTTOM
 10
0.0
 20
0.0
 30
0.0
  9
$UCSORGLEFT
 10
0.0
 20
0.0
 30
0.0
  9
$UCSORGRIGHT
 10
0.0
 20
0.0
 30
0.0
  9
$UCSORGFRONT
 10
0.0
 20
0.0
 30
0.0
  9
$UCSORGBACK
 10
0.0
 20
0.0
 30
0.0
  9
$PUCSBASE
  2

  9
$PUCSNAME
  2

  9
$PUCSORG
 10
0.0
 20
0.0
 30
0.0
  9
$PUCSXDIR
 10
1.0
 20
0.0
 30
0.0
  9
$PUCSYDIR
 10
0.0
 20
1.0
 30
0.0
  9
$PUCSORTHOREF
  2

  9
$PUCSORTHOVIEW
 70
     0
  9
$PUCSORGTOP
 10
0.0
 20
0.0
 30
0.0
  9
$PUCSORGBOTTOM
 10
0.0
 20
0.0
 30
0.0
  9
$PUCSORGLEFT
 10
0.0
 20
0.0
 30
0.0
  9
$PUCSORGRIGHT
 10
0.0
 20
0.0
 30
0.0
  9
$PUCSORGFRONT
 10
0.0
 20
0.0
 30
0.0
  9
$PUCSORGBACK
 10
0.0
 20
0.0
 30
0.0
  9
$USERI1
 70
     0
  9
$USERI2
 70
     0
  9
$USERI3
 70
     0
  9
$USERI4
 70
     0
  9
$USERI5
 70
     0
  9
$USERR1
 40
0.0
  9
$USERR2
 40
0.0
  9
$USERR3
 40
0.0
  9
$USERR4
 40
0.0
  9
$USERR5
 40
0.0
  9
$WORLDVIEW
 70
     1
  9
$SHADEDGE
 70
     3
  9
$SHADEDIF
 70
    70
  9
$TILEMODE
 70
     1
  9
$MAXACTVP
 70
    64
  9
$PINSBASE
 10
0.0
 20
0.0
 30
0.0
  9
$PLIMCHECK
 70
     0
  9
$PEXTMIN
 10
0.0
 20
0.0
 30
0.0
  9
$PEXTMAX
 10
210.0
 20
297.0
 30
0.0
  9
$PLIMMIN
 10
0.0
 20
0.0
  9
$PLIMMAX
 10
12.0
 20
9.0
  9
$UNITMODE
 70
     0
  9
$VISRETAIN
 70
     1
  9
$PLINEGEN
 70
     0
  9
$PSLTSCALE
 70
     1
  9
$TREEDEPTH
 70
  3020
  9
$CMLSTYLE
  2
Standard
  9
$CMLJUST
 70
     0
  9
$CMLSCALE
 40
1.0
  9
$PROXYGRAPHICS
 70
     1
  9
$MEASUREMENT
 70
     0
  9
$CELWEIGHT
370
    -1
  9
$ENDCAPS
280
     0
  9
$JOINSTYLE
280
     0
  9
$LWDISPLAY
290
     0
  9
$INSUNITS
 70
     0
  9
$HYPERLINKBASE
  1

  9
$STYLESHEET
  1

  9
$XEDIT
290
     1
  9
$CEPSNTYPE
380
     0
  9
$PSTYLEMODE
290
     1
  9
$FINGERPRINTGUID
  2
{9D194B68-B8B6-4200-B049-B2DCD3A5D2F5}
  9
$VERSIONGUID
  2
{88FBF103-52F9-4C22-B3F2-24F3D39701FE}
  9
$EXTNAMES
290
     1
  9
$PSVPSCALE
 40
0.0
  9
$OLESTARTUP
290
     0
  0
ENDSEC
  0
SECTION
  2
CLASSES
  0
CLASS
  1
ACDBDICTIONARYWDFLT
  2
AcDbDictionaryWithDefault
  3
AutoCAD 2000
 90
        0
280
     0
281
     0
  0
CLASS
  1
ACDBPLACEHOLDER
  2
AcDbPlaceHolder
  3
AutoCAD 2000
 90
        0
280
     0
281
     0
  0
CLASS
  1
LAYOUT
  2
AcDbLayout
  3
AutoCAD 2000
 90
        0
280
     0
281
     0
  0
ENDSEC
  0
SECTION
  2
TABLES
  0
TABLE
  2
VPORT
  5
8
330
0
100
AcDbSymbolTable
 70
     3
  0
VPORT
  5
37D
330
8
100
AcDbSymbolTableRecord
100
AcDbViewportTableRecord
  2
*Active
 70
     0
 10
0.0
 20
0.0
 11
1.0
 21
1.0
 12
164.3163914967494
 22
308.3275404100561
 13
0.0
 23
0.0
 14
1.0
 24
1.0
 15
0.0
 25
0.0
 16
0.0
 26
0.0
 36
1.0
 17
0.0
 27
0.0
 37
0.0
 40
510.9924940602539
 41
1.461725394896719
 42
50.0
 43
0.0
 44
0.0
 50
0.0
 51
0.0
 71
     0
 72
   100
 73
     1
 74
     1
 75
     0
 76
     0
 77
     0
 78
     0
281
     0
 65
     1
110
0.0
120
0.0
130
0.0
111
1.0
121
0.0
131
0.0
112
0.0
122
1.0
132
0.0
 79
     0
146
0.0
  0
ENDTAB
  0
TABLE
  2
LTYPE
  5
5
330
0
100
AcDbSymbolTable
 70
     5
  0
LTYPE
  5
13
330
5
100
AcDbSymbolTableRecord
100
AcDbLinetypeTableRecord
  2
ByBlock
 70
     0
  3

 72
    65
 73
     0
 40
0.0
  0
LTYPE
  5
14
330
5
100
AcDbSymbolTableRecord
100
AcDbLinetypeTableRecord
  2
ByLayer
 70
     0
  3

 72
    65
 73
     0
 40
0.0
  0
LTYPE
  5
15
330
5
100
AcDbSymbolTableRecord
100
AcDbLinetypeTableRecord
  2
CONTINUOUS
 70
     0
  3
Solid line
 72
    65
 73
     0
 40
0.0
  0
LTYPE
  5
22
330
5
100
AcDbSymbolTableRecord
100
AcDbLinetypeTableRecord
  2
HIDDEN
 70
     0
  3
------------------------
 72
    65
 73
     2
 40
12.6
 49
8.4
 74
     0
 49
-4.2
 74
     0
  0
LTYPE
  5
23
330
5
100
AcDbSymbolTableRecord
100
AcDbLinetypeTableRecord
  2
DOT
 70
     0
  3
････････････････････････
 72
    65
 73
     2
 40
8.0
 49
6.0
 74
     0
 49
-2.0
 74
     0
  0
LTYPE
  5
24
330
5
100
AcDbSymbolTableRecord
100
AcDbLinetypeTableRecord
  2
DASHDOT
 70
     0
  3
--･--･--･--･--･--･--･--
 72
    65
 73
     4
 40
50.5
 49
30.0
 74
     0
 49
-9.0
 74
     0
 49
2.5
 74
     0
 49
-9.0
 74
     0
  0
LTYPE
  5
25
330
5
100
AcDbSymbolTableRecord
100
AcDbLinetypeTableRecord
  2
DIVIDE
 70
     0
  3
--･･--･･--･･--･･--･･--
 72
    65
 73
     6
 40
58.0
 49
30.0
 74
     0
 49
-9.0
 74
     0
 49
2.5
 74
     0
 49
-5.0
 74
     0
 49
2.5
 74
     0
 49
-9.0
 74
     0
  0
ENDTAB
  0
TABLE
  2
LAYER
  5
2
330
0
100
AcDbSymbolTable
 70
     3
  0
LAYER
  5
10
330
2
100
AcDbSymbolTableRecord
100
AcDbLayerTableRecord
  2
0
 70
     0
 62
     7
  6
CONTINUOUS
370
    -3
390
F
  0
LAYER
  5
26
330
2
100
AcDbSymbolTableRecord
100
AcDbLayerTableRecord
  2
1
 70
     0
 62
     7
  6
CONTINUOUS
370
    -3
390
F
  0
LAYER
  5
16D
330
2
100
AcDbSymbolTableRecord
100
AcDbLayerTableRecord
  2
Defpoints
 70
     0
 62
     7
  6
CONTINUOUS
290
     0
370
    -3
390
F
  0
ENDTAB
  0
TABLE
  2
STYLE
  5
3
330
0
100
AcDbSymbolTable
 70
     2
  0
STYLE
  5
11
330
3
100
AcDbSymbolTableRecord
100
AcDbTextStyleTableRecord
  2
STANDARD
 70
     0
 40
0.0
 41
1.0
 50
0.0
 71
     0
 42
0.2
  3
TXT
  4

  0
STYLE
  5
27
330
3
100
AcDbSymbolTableRecord
100
AcDbTextStyleTableRecord
  2
KANJI
 70
     0
 40
0.0
 41
1.0
 50
0.0
 71
     0
 42
0.2
  3
TXT
  4
BIGFONT
  0
ENDTAB
  0
TABLE
  2
VIEW
  5
6
330
0
100
AcDbSymbolTable
 70
     0
  0
ENDTAB
  0
TABLE
  2
UCS
  5
7
330
0
100
AcDbSymbolTable
 70
     0
  0
ENDTAB
  0
TABLE
  2
APPID
  5
9
330
0
100
AcDbSymbolTable
 70
     1
  0
APPID
  5
12
330
9
100
AcDbSymbolTableRecord
100
AcDbRegAppTableRecord
  2
ACAD
 70
     0
  0
ENDTAB
  0
TABLE
  2
DIMSTYLE
  5
A
330
0
100
AcDbSymbolTable
 70
     1
100
AcDbDimStyleTable
 71
     1
340
225
  0
DIMSTYLE
105
225
330
A
100
AcDbSymbolTableRecord
100
AcDbDimStyleTableRecord
  2
Standard
 70
     0
340
11
  0
ENDTAB
  0
TABLE
  2
BLOCK_RECORD
  5
1
330
0
100
AcDbSymbolTable
 70
    14
  0
BLOCK_RECORD
  5
1E
330
1
100
AcDbSymbolTableRecord
100
AcDbBlockTableRecord
  2
*Model_Space
340
21
  0
BLOCK_RECORD
  5
1A
330
1
100
AcDbSymbolTableRecord
100
AcDbBlockTableRecord
  2
*Paper_Space
340
1D
  0
BLOCK_RECORD
  5
2B
330
1
100
AcDbSymbolTableRecord
100
AcDbBlockTableRecord
  2
*D0
340
0
  0
BLOCK_RECORD
  5
36
330
1
100
AcDbSymbolTableRecord
100
AcDbBlockTableRecord
  2
*D1
340
0
  0
BLOCK_RECORD
  5
41
330
1
100
AcDbSymbolTableRecord
100
AcDbBlockTableRecord
  2
*D2
340
0
  0
BLOCK_RECORD
  5
4C
330
1
100
AcDbSymbolTableRecord
100
AcDbBlockTableRecord
  2
*D3
340
0
  0
BLOCK_RECORD
  5
57
330
1
100
AcDbSymbolTableRecord
100
AcDbBlockTableRecord
  2
*D4
340
0
  0
BLOCK_RECORD
  5
62
330
1
100
AcDbSymbolTableRecord
100
AcDbBlockTableRecord
  2
*D5
340
0
  0
BLOCK_RECORD
  5
6D
330
1
100
AcDbSymbolTableRecord
100
AcDbBlockTableRecord
  2
*D6
340
0
  0
BLOCK_RECORD
  5
16E
330
1
100
AcDbSymbolTableRecord
100
AcDbBlockTableRecord
  2
*D7
340
0
  0
BLOCK_RECORD
  5
17A
330
1
100
AcDbSymbolTableRecord
100
AcDbBlockTableRecord
  2
*D8
340
0
  0
BLOCK_RECORD
  5
186
330
1
100
AcDbSymbolTableRecord
100
AcDbBlockTableRecord
  2
*D9
340
0
  0
BLOCK_RECORD
  5
1F6
330
1
100
AcDbSymbolTableRecord
100
AcDbBlockTableRecord
  2
*D10
340
0
  0
BLOCK_RECORD
  5
202
330
1
100
AcDbSymbolTableRecord
100
AcDbBlockTableRecord
  2
*D11
340
0
  0
BLOCK_RECORD
  5
20E
330
1
100
AcDbSymbolTableRecord
100
AcDbBlockTableRecord
  2
*D12
340
0
  0
BLOCK_RECORD
  5
21A
330
1
100
AcDbSymbolTableRecord
100
AcDbBlockTableRecord
  2
*D13
340
0
  0
ENDTAB
  0
ENDSEC
  0
SECTION
  2
BLOCKS
  0
BLOCK
  5
1F
330
1E
100
AcDbEntity
  8
0
100
AcDbBlockBegin
  2
*Model_Space
 70
     0
 10
0.0
 20
0.0
 30
0.0
  3
*Model_Space
  1

  0
ENDBLK
  5
20
330
1E
100
AcDbEntity
  8
0
100
AcDbBlockEnd
  0
BLOCK
  5
1B
330
1A
100
AcDbEntity
 67
     1
  8
0
100
AcDbBlockBegin
  2
*Paper_Space
 70
     0
 10
0.0
 20
0.0
 30
0.0
  3
*Paper_Space
  1

  0
ENDBLK
  5
1C
330
1A
100
AcDbEntity
 67
     1
  8
0
100
AcDbBlockEnd
  0
BLOCK
  5
2C
330
2B
100
AcDbEntity
  8
1
  6
Continuous
 62
     7
100
AcDbBlockBegin
  2
*D0
 70
     1
 10
0.0
 20
0.0
 30
0.0
  3
*D0
  1

  0
LINE
  5
2D
330
2B
100
AcDbEntity
  8
1
  6
Continuous
 62
     7
100
AcDbLine
 10
137.264971
 20
461.339748
 30
0.0
 11
223.867513
 21
411.3397479999998
 31
0.0
  0
LINE
  5
2E
330
2B
100
AcDbEntity
  8
1
  6
Continuous
 62
     7
100
AcDbLine
 10
135.264971
 20
457.875646
 30
0.0
 11
140.2649699999998
 21
466.535898
 31
0.0
  0
LINE
  5
2F
330
2B
100
AcDbEntity
  8
1
  6
Continuous
 62
     7
100
AcDbLine
 10
221.867513
 20
407.875646
 30
0.0
 11
226.867512
 21
416.5358979999998
 31
0.0
  0
LINE
  5
30
330
2B
100
AcDbEntity
  8
1
  6
Continuous
 62
     7
100
AcDbLine
 10
137.264971
 20
461.339748
 30
0.0
 11
141.1286739999999
 21
460.3044709999998
 31
0.0
  0
LINE
  5
31
330
2B
100
AcDbEntity
  8
1
  6
Continuous
 62
     7
100
AcDbLine
 10
137.264971
 20
461.339748
 30
0.0
 11
140.093398
 21
458.51132
 31
0.0
  0
LINE
  5
32
330
2B
100
AcDbEntity
  8
1
  6
Continuous
 62
     7
100
AcDbLine
 10
223.867513
 20
411.3397479999998
 30
0.0
 11
220.003809
 21
412.3750239999997
 31
0.0
  0
LINE
  5
33
330
2B
100
AcDbEntity
  8
1
  6
Continuous
 62
     7
100
AcDbLine
 10
223.867513
 20
411.3397479999998
 30
0.0
 11
221.039085
 21
414.168175
 31
0.0
  0
TEXT
  5
34
330
2B
100
AcDbEntity
  8
1
  6
Continuous
 62
     7
100
AcDbText
 10
175.3700889999999
 20
439.339748
 30
0.0
 40
8.0
  1
100
 50
330.0
 41
0.5
  7
KANJI
100
AcDbText
  0
ENDBLK
  5
35
330
2B
100
AcDbEntity
  8
0
100
AcDbBlockEnd
  0
BLOCK
  5
37
330
36
100
AcDbEntity
  8
1
  6
Continuous
 62
     7
100
AcDbBlockBegin
  2
*D1
 70
     1
 10
0.0
 20
0.0
 30
0.0
  3
*D1
  1

  0
LINE
  5
38
330
36
100
AcDbEntity
  8
1
  6
Continuous
 62
     7
100
AcDbLine
 10
137.2649699999998
 20
478.660253
 30
0.0
 11
223.86751
 21
528.660253
 31
0.0
  0
LINE
  5
39
330
36
100
AcDbEntity
  8
1
  6
Continuous
 62
     7
100
AcDbLine
 10
135.26497
 20
482.124355
 30
0.0
 11
140.264969
 21
473.4641019999998
 31
0.0
  0
LINE
  5
3A
330
36
100
AcDbEntity
  8
1
  6
Continuous
 62
     7
100
AcDbLine
 10
221.86751
 20
532.124355
 30
0.0
 11
226.86751
 21
523.4641019999997
 31
0.0
  0
LINE
  5
3B
330
36
100
AcDbEntity
  8
1
  6
Continuous
 62
     7
100
AcDbLine
 10
137.2649699999998
 20
478.660253
 30
0.0
 11
140.093397
 21
481.48868
 31
0.0
  0
LINE
  5
3C
330
36
100
AcDbEntity
  8
1
  6
Continuous
 62
     7
100
AcDbLine
 10
137.2649699999998
 20
478.660253
 30
0.0
 11
141.128673
 21
479.6955299999998
 31
0.0
  0
LINE
  5
3D
330
36
100
AcDbEntity
  8
1
  6
Continuous
 62
     7
100
AcDbLine
 10
223.86751
 20
528.660253
 30
0.0
 11
221.039083
 21
525.831826
 31
0.0
  0
LINE
  5
3E
330
36
100
AcDbEntity
  8
1
  6
Continuous
 62
     7
100
AcDbLine
 10
223.86751
 20
528.660253
 30
0.0
 11
220.003807
 21
527.6249769999998
 31
0.0
  0
TEXT
  5
3F
330
36
100
AcDbEntity
  8
1
  6
Continuous
 62
     7
100
AcDbText
 10
175.370087
 20
500.660253
 30
0.0
 40
8.0
  1
100
 50
30.0
 41
0.5
  7
KANJI
100
AcDbText
  0
ENDBLK
  5
40
330
36
100
AcDbEntity
  8
0
100
AcDbBlockEnd
  0
BLOCK
  5
42
330
41
100
AcDbEntity
  8
1
  6
Continuous
 62
     7
100
AcDbBlockBegin
  2
*D2
 70
     1
 10
0.0
 20
0.0
 30
0.0
  3
*D2
  1

  0
LINE
  5
43
330
41
100
AcDbEntity
  8
1
  6
Continuous
 62
     7
100
AcDbLine
 10
238.867512
 20
420.0
 30
0.0
 11
238.867512
 21
520.0
 31
0.0
  0
LINE
  5
44
330
41
100
AcDbEntity
  8
1
  6
Continuous
 62
     7
100
AcDbLine
 10
242.867512
 20
420.0
 30
0.0
 11
232.867512
 21
420.0
 31
0.0
  0
LINE
  5
45
330
41
100
AcDbEntity
  8
1
  6
Continuous
 62
     7
100
AcDbLine
 10
242.867512
 20
520.0
 30
0.0
 11
232.867512
 21
520.0
 31
0.0
  0
LINE
  5
46
330
41
100
AcDbEntity
  8
1
  6
Continuous
 62
     7
100
AcDbLine
 10
238.867512
 20
420.0
 30
0.0
 11
237.8322349999999
 21
423.863703
 31
0.0
  0
LINE
  5
47
330
41
100
AcDbEntity
  8
1
  6
Continuous
 62
     7
100
AcDbLine
 10
238.867512
 20
420.0
 30
0.0
 11
239.9027879999999
 21
423.863703
 31
0.0
  0
LINE
  5
48
330
41
100
AcDbEntity
  8
1
  6
Continuous
 62
     7
100
AcDbLine
 10
238.867512
 20
520.0
 30
0.0
 11
239.9027879999999
 21
516.1362969999998
 31
0.0
  0
LINE
  5
49
330
41
100
AcDbEntity
  8
1
  6
Continuous
 62
     7
100
AcDbLine
 10
238.867512
 20
520.0
 30
0.0
 11
237.8322349999999
 21
516.1362969999998
 31
0.0
  0
TEXT
  5
4A
330
41
100
AcDbEntity
  8
1
  6
Continuous
 62
     7
100
AcDbText
 10
238.867512
 20
464.0
 30
0.0
 40
8.0
  1
100
 50
90.0
 41
0.5
  7
KANJI
100
AcDbText
  0
ENDBLK
  5
4B
330
41
100
AcDbEntity
  8
0
100
AcDbBlockEnd
  0
BLOCK
  5
4D
330
4C
100
AcDbEntity
  8
1
  6
Continuous
 62
     7
100
AcDbBlockBegin
  2
*D3
 70
     1
 10
0.0
 20
0.0
 30
0.0
  3
*D3
  1

  0
LINE
  5
4E
330
4C
100
AcDbEntity
  8
1
  6
Continuous
 62
     7
100
AcDbLine
 10
115.0
 20
315.0
 30
0.0
 11
115.0
 21
370.0
 31
0.0
  0
LINE
  5
4F
330
4C
100
AcDbEntity
  8
1
  6
Continuous
 62
     7
100
AcDbLine
 10
111.0
 20
315.0
 30
0.0
 11
121.0
 21
315.0
 31
0.0
  0
LINE
  5
50
330
4C
100
AcDbEntity
  8
1
  6
Continuous
 62
     7
100
AcDbLine
 10
111.0
 20
370.0
 30
0.0
 11
121.0
 21
370.0
 31
0.0
  0
LINE
  5
51
330
4C
100
AcDbEntity
  8
1
  6
Continuous
 62
     7
100
AcDbLine
 10
115.0
 20
315.0
 30
0.0
 11
113.964724
 21
318.8637029999998
 31
0.0
  0
LINE
  5
52
330
4C
100
AcDbEntity
  8
1
  6
Continuous
 62
     7
100
AcDbLine
 10
115.0
 20
315.0
 30
0.0
 11
116.035276
 21
318.8637029999998
 31
0.0
  0
LINE
  5
53
330
4C
100
AcDbEntity
  8
1
  6
Continuous
 62
     7
100
AcDbLine
 10
115.0
 20
370.0
 30
0.0
 11
116.035276
 21
366.136297
 31
0.0
  0
LINE
  5
54
330
4C
100
AcDbEntity
  8
1
  6
Continuous
 62
     7
100
AcDbLine
 10
115.0
 20
370.0
 30
0.0
 11
113.964724
 21
366.136297
 31
0.0
  0
TEXT
  5
55
330
4C
100
AcDbEntity
  8
1
  6
Continuous
 62
     7
100
AcDbText
 10
115.0
 20
338.5
 30
0.0
 40
8.0
  1
55
 50
90.0
 41
0.5
  7
KANJI
100
AcDbText
  0
ENDBLK
  5
56
330
4C
100
AcDbEntity
  8
0
100
AcDbBlockEnd
  0
BLOCK
  5
58
330
57
100
AcDbEntity
  8
1
  6
Continuous
 62
     7
100
AcDbBlockBegin
  2
*D4
 70
     1
 10
0.0
 20
0.0
 30
0.0
  3
*D4
  1

  0
LINE
  5
59
330
57
100
AcDbEntity
  8
1
  6
Continuous
 62
     7
100
AcDbLine
 10
100.0
 20
370.0
 30
0.0
 11
100.0
 21
270.0
 31
0.0
  0
LINE
  5
5A
330
57
100
AcDbEntity
  8
1
  6
Continuous
 62
     7
100
AcDbLine
 10
96.0
 20
370.0
 30
0.0
 11
121.0
 21
370.0
 31
0.0
  0
LINE
  5
5B
330
57
100
AcDbEntity
  8
1
  6
Continuous
 62
     7
100
AcDbLine
 10
96.0
 20
270.0
 30
0.0
 11
121.0
 21
270.0
 31
0.0
  0
LINE
  5
5C
330
57
100
AcDbEntity
  8
1
  6
Continuous
 62
     7
100
AcDbLine
 10
100.0
 20
370.0
 30
0.0
 11
101.0352759999999
 21
366.136297
 31
0.0
  0
LINE
  5
5D
330
57
100
AcDbEntity
  8
1
  6
Continuous
 62
     7
100
AcDbLine
 10
100.0
 20
370.0
 30
0.0
 11
98.964724
 21
366.136297
 31
0.0
  0
LINE
  5
5E
330
57
100
AcDbEntity
  8
1
  6
Continuous
 62
     7
100
AcDbLine
 10
100.0
 20
270.0
 30
0.0
 11
98.964724
 21
273.863703
 31
0.0
  0
LINE
  5
5F
330
57
100
AcDbEntity
  8
1
  6
Continuous
 62
     7
100
AcDbLine
 10
100.0
 20
270.0
 30
0.0
 11
101.0352759999999
 21
273.863703
 31
0.0
  0
TEXT
  5
60
330
57
100
AcDbEntity
  8
1
  6
Continuous
 62
     7
100
AcDbText
 10
100.0
 20
312.0
 30
0.0
 40
8.0
  1
99.5
 50
90.0
 41
0.5555560000000001
  7
KANJI
100
AcDbText
  0
ENDBLK
  5
61
330
57
100
AcDbEntity
  8
0
100
AcDbBlockEnd
  0
BLOCK
  5
63
330
62
100
AcDbEntity
  8
1
  6
Continuous
 62
     7
100
AcDbBlockBegin
  2
*D5
 70
     1
 10
0.0
 20
0.0
 30
0.0
  3
*D5
  1

  0
LINE
  5
64
330
62
100
AcDbEntity
  8
1
  6
Continuous
 62
     7
100
AcDbLine
 10
154.0
 20
255.0
 30
0.0
 11
246.0
 21
255.0
 31
0.0
  0
LINE
  5
65
330
62
100
AcDbEntity
  8
1
  6
Continuous
 62
     7
100
AcDbLine
 10
154.0
 20
251.0
 30
0.0
 11
154.0
 21
276.0
 31
0.0
  0
LINE
  5
66
330
62
100
AcDbEntity
  8
1
  6
Continuous
 62
     7
100
AcDbLine
 10
246.0
 20
251.0
 30
0.0
 11
246.0
 21
276.0
 31
0.0
  0
LINE
  5
67
330
62
100
AcDbEntity
  8
1
  6
Continuous
 62
     7
100
AcDbLine
 10
154.0
 20
255.0
 30
0.0
 11
157.863703
 21
256.0352759999998
 31
0.0
  0
LINE
  5
68
330
62
100
AcDbEntity
  8
1
  6
Continuous
 62
     7
100
AcDbLine
 10
154.0
 20
255.0
 30
0.0
 11
157.863703
 21
253.964724
 31
0.0
  0
LINE
  5
69
330
62
100
AcDbEntity
  8
1
  6
Continuous
 62
     7
100
AcDbLine
 10
246.0
 20
255.0
 30
0.0
 11
242.136297
 21
253.964724
 31
0.0
  0
LINE
  5
6A
330
62
100
AcDbEntity
  8
1
  6
Continuous
 62
     7
100
AcDbLine
 10
246.0
 20
255.0
 30
0.0
 11
242.136297
 21
256.0352759999998
 31
0.0
  0
TEXT
  5
6B
330
62
100
AcDbEntity
  8
1
  6
Continuous
 62
     7
100
AcDbText
 10
192.0
 20
255.0
 30
0.0
 40
8.0
  1
92φ
 41
0.625
  7
KANJI
100
AcDbText
  0
ENDBLK
  5
6C
330
62
100
AcDbEntity
  8
0
100
AcDbBlockEnd
  0
BLOCK
  5
6E
330
6D
100
AcDbEntity
  8
1
  6
Continuous
 62
     7
100
AcDbBlockBegin
  2
*D6
 70
     1
 10
0.0
 20
0.0
 30
0.0
  3
*D6
  1

  0
LINE
  5
6F
330
6D
100
AcDbEntity
  8
1
  6
Continuous
 62
     7
100
AcDbLine
 10
133.5000159999998
 20
240.0
 30
0.0
 11
266.500018
 21
240.0
 31
0.0
  0
LINE
  5
70
330
6D
100
AcDbEntity
  8
1
  6
Continuous
 62
     7
100
AcDbLine
 10
133.5000159999998
 20
236.0
 30
0.0
 11
133.5000159999998
 21
276.0
 31
0.0
  0
LINE
  5
71
330
6D
100
AcDbEntity
  8
1
  6
Continuous
 62
     7
100
AcDbLine
 10
266.500018
 20
236.0
 30
0.0
 11
266.500018
 21
276.0
 31
0.0
  0
LINE
  5
72
330
6D
100
AcDbEntity
  8
1
  6
Continuous
 62
     7
100
AcDbLine
 10
133.5000159999998
 20
240.0
 30
0.0
 11
137.36372
 21
241.0352759999999
 31
0.0
  0
LINE
  5
73
330
6D
100
AcDbEntity
  8
1
  6
Continuous
 62
     7
100
AcDbLine
 10
133.5000159999998
 20
240.0
 30
0.0
 11
137.36372
 21
238.964724
 31
0.0
  0
LINE
  5
74
330
6D
100
AcDbEntity
  8
1
  6
Continuous
 62
     7
100
AcDbLine
 10
266.500018
 20
240.0
 30
0.0
 11
262.636314
 21
238.964724
 31
0.0
  0
LINE
  5
75
330
6D
100
AcDbEntity
  8
1
  6
Continuous
 62
     7
100
AcDbLine
 10
266.500018
 20
240.0
 30
0.0
 11
262.636314
 21
241.0352759999999
 31
0.0
  0
TEXT
  5
76
330
6D
100
AcDbEntity
  8
1
  6
Continuous
 62
     7
100
AcDbText
 10
190.000017
 20
240.0
 30
0.0
 40
8.0
  1
136φ
 41
0.5952380000000001
  7
KANJI
100
AcDbText
  0
ENDBLK
  5
77
330
6D
100
AcDbEntity
  8
0
100
AcDbBlockEnd
  0
BLOCK
  5
177
330
16E
100
AcDbEntity
  8
0
100
AcDbBlockBegin
  2
*D7
 70
     1
 10
0.0
 20
0.0
 30
0.0
  3
*D7
  1

  0
LINE
  5
16F
330
16E
100
AcDbEntity
  8
1
  6
Continuous
 62
     0
370
    -2
100
AcDbLine
 10
140.2649699999998
 20
466.535898
 30
0.0
 11
137.2649712990627
 21
461.3397478273359
 31
0.0
  0
LINE
  5
170
330
16E
100
AcDbEntity
  8
1
  6
Continuous
 62
     0
370
    -2
100
AcDbLine
 10
226.867512
 20
416.5358979999998
 30
0.0
 11
223.8675128936737
 21
411.3397471251816
 31
0.0
  0
LINE
  5
171
330
16E
100
AcDbEntity
  8
1
  6
Continuous
 62
     0
370
    -2
100
AcDbLine
 10
138.1309967028472
 20
460.8397478273359
 30
0.0
 11
223.0014874898893
 21
411.8397471251816
 31
0.0
  0
SOLID
  5
172
330
16E
100
AcDbEntity
  8
1
  6
Continuous
 62
     0
100
AcDbTrace
 10
138.2143300361804
 20
460.9840853946335
 30
0.0
 11
138.0476633695137
 21
460.6954102600385
 31
0.0
 12
137.2649712990627
 22
461.3397478273359
 32
0.0
 13
137.2649712990627
 23
461.3397478273359
 33
0.0
  0
SOLID
  5
173
330
16E
100
AcDbEntity
  8
1
  6
Continuous
 62
     0
100
AcDbTrace
 10
223.0848208232225
 20
411.984084692479
 30
0.0
 11
222.9181541565559
 21
411.6954095578842
 31
0.0
 12
223.8675128936737
 22
411.3397471251816
 32
0.0
 13
223.8675128936737
 23
411.3397471251816
 33
0.0
  0
POINT
  5
174
330
16E
100
AcDbEntity
  8
Defpoints
  6
Continuous
 62
     0
100
AcDbPoint
 10
140.2649699999998
 20
466.535898
 30
0.0
  0
POINT
  5
175
330
16E
100
AcDbEntity
  8
Defpoints
  6
Continuous
 62
     0
100
AcDbPoint
 10
226.867512
 20
416.5358979999998
 30
0.0
  0
POINT
  5
176
330
16E
100
AcDbEntity
  8
Defpoints
  6
Continuous
 62
     0
100
AcDbPoint
 10
223.8675128936737
 20
411.3397471251816
 30
0.0
  0
ENDBLK
  5
178
330
16E
100
AcDbEntity
  8
0
100
AcDbBlockEnd
  0
BLOCK
  5
183
330
17A
100
AcDbEntity
  8
0
100
AcDbBlockBegin
  2
*D8
 70
     1
 10
0.0
 20
0.0
 30
0.0
  3
*D8
  1

  0
LINE
  5
17B
330
17A
100
AcDbEntity
  8
1
  6
Continuous
 62
     0
370
    -2
100
AcDbLine
 10
140.2649689999998
 20
473.4641019999999
 30
0.0
 11
137.2649698660499
 21
478.6602529226638
 31
0.0
  0
LINE
  5
17C
330
17A
100
AcDbEntity
  8
1
  6
Continuous
 62
     0
370
    -2
100
AcDbLine
 10
226.8675099999999
 20
523.4641019999997
 30
0.0
 11
223.8675107106609
 21
528.6602531918056
 31
0.0
  0
LINE
  5
17D
330
17A
100
AcDbEntity
  8
1
  6
Continuous
 62
     0
370
    -2
100
AcDbLine
 10
138.1309952698344
 20
479.1602529226638
 30
0.0
 11
223.0014853068764
 21
528.1602531918056
 31
0.0
  0
SOLID
  5
17E
330
17A
100
AcDbEntity
  8
1
  6
Continuous
 62
     0
100
AcDbTrace
 10
138.0476619365011
 20
479.3045904899613
 30
0.0
 11
138.2143286031677
 21
479.0159153553665
 31
0.0
 12
137.2649698660499
 22
478.6602529226638
 32
0.0
 13
137.2649698660499
 23
478.6602529226638
 33
0.0
  0
SOLID
  5
17F
330
17A
100
AcDbEntity
  8
1
  6
Continuous
 62
     0
100
AcDbTrace
 10
222.9181519735432
 20
528.304590759103
 30
0.0
 11
223.0848186402098
 21
528.0159156245082
 31
0.0
 12
223.8675107106609
 22
528.6602531918056
 32
0.0
 13
223.8675107106609
 23
528.6602531918056
 33
0.0
  0
POINT
  5
180
330
17A
100
AcDbEntity
  8
Defpoints
  6
Continuous
 62
     0
100
AcDbPoint
 10
140.2649689999998
 20
473.4641019999999
 30
0.0
  0
POINT
  5
181
330
17A
100
AcDbEntity
  8
Defpoints
  6
Continuous
 62
     0
100
AcDbPoint
 10
226.8675099999999
 20
523.4641019999997
 30
0.0
  0
POINT
  5
182
330
17A
100
AcDbEntity
  8
Defpoints
  6
Continuous
 62
     0
100
AcDbPoint
 10
223.8675107106609
 20
528.6602531918056
 30
0.0
  0
ENDBLK
  5
184
330
17A
100
AcDbEntity
  8
0
100
AcDbBlockEnd
  0
BLOCK
  5
18F
330
186
100
AcDbEntity
  8
0
100
AcDbBlockBegin
  2
*D9
 70
     1
 10
0.0
 20
0.0
 30
0.0
  3
*D9
  1

  0
LINE
  5
187
330
186
100
AcDbEntity
  8
1
  6
Continuous
 62
     0
370
    -2
100
AcDbLine
 10
232.867512
 20
420.0
 30
0.0
 11
238.867512
 21
420.0
 31
0.0
  0
LINE
  5
188
330
186
100
AcDbEntity
  8
1
  6
Continuous
 62
     0
370
    -2
100
AcDbLine
 10
232.867512
 20
520.0
 30
0.0
 11
238.867512
 21
520.0
 31
0.0
  0
LINE
  5
189
330
186
100
AcDbEntity
  8
1
  6
Continuous
 62
     0
370
    -2
100
AcDbLine
 10
238.867512
 20
421.0
 30
0.0
 11
238.867512
 21
519.0
 31
0.0
  0
SOLID
  5
18A
330
186
100
AcDbEntity
  8
1
  6
Continuous
 62
     0
100
AcDbTrace
 10
238.7008453333333
 20
421.0
 30
0.0
 11
239.0341786666666
 21
421.0
 31
0.0
 12
238.867512
 22
420.0
 32
0.0
 13
238.867512
 23
420.0
 33
0.0
  0
SOLID
  5
18B
330
186
100
AcDbEntity
  8
1
  6
Continuous
 62
     0
100
AcDbTrace
 10
238.7008453333333
 20
519.0
 30
0.0
 11
239.0341786666666
 21
519.0
 31
0.0
 12
238.867512
 22
520.0
 32
0.0
 13
238.867512
 23
520.0
 33
0.0
  0
POINT
  5
18C
330
186
100
AcDbEntity
  8
Defpoints
  6
Continuous
 62
     0
100
AcDbPoint
 10
232.867512
 20
420.0
 30
0.0
  0
POINT
  5
18D
330
186
100
AcDbEntity
  8
Defpoints
  6
Continuous
 62
     0
100
AcDbPoint
 10
232.867512
 20
520.0
 30
0.0
  0
POINT
  5
18E
330
186
100
AcDbEntity
  8
Defpoints
  6
Continuous
 62
     0
100
AcDbPoint
 10
238.867512
 20
520.0
 30
0.0
  0
ENDBLK
  5
190
330
186
100
AcDbEntity
  8
0
100
AcDbBlockEnd
  0
BLOCK
  5
1FF
330
1F6
100
AcDbEntity
  8
0
100
AcDbBlockBegin
  2
*D10
 70
     1
 10
0.0
 20
0.0
 30
0.0
  3
*D10
  1

  0
LINE
  5
31A
330
1F6
100
AcDbEntity
  8
1
  6
Continuous
 62
     0
370
    -2
100
AcDbLine
 10
277.0107874220637
 20
317.0603356003392
 30
0.0
 11
292.799280657234
 21
317.0603356003392
 31
0.0
  0
LINE
  5
31B
330
1F6
100
AcDbEntity
  8
1
  6
Continuous
 62
     0
370
    -2
100
AcDbLine
 10
279.649649328617
 20
370.0
 30
0.0
 11
292.799280657234
 21
370.0
 31
0.0
  0
LINE
  5
31C
330
1F6
100
AcDbEntity
  8
1
  6
Continuous
 62
     0
370
    -2
100
AcDbLine
 10
292.799280657234
 20
318.0603356003392
 30
0.0
 11
292.799280657234
 21
342.3199999999998
 31
0.0
  0
LINE
  5
31D
330
1F6
100
AcDbEntity
  8
1
  6
Continuous
 62
     0
370
    -2
100
AcDbLine
 10
292.799280657234
 20
369.0
 30
0.0
 11
292.799280657234
 21
342.6799999999999
 31
0.0
  0
SOLID
  5
31E
330
1F6
100
AcDbEntity
  8
1
  6
Continuous
 62
     0
100
AcDbTrace
 10
292.6326139905673
 20
318.0603356003392
 30
0.0
 11
292.9659473239007
 21
318.0603356003392
 31
0.0
 12
292.799280657234
 22
317.0603356003392
 32
0.0
 13
292.799280657234
 23
317.0603356003392
 33
0.0
  0
SOLID
  5
31F
330
1F6
100
AcDbEntity
  8
1
  6
Continuous
 62
     0
100
AcDbTrace
 10
292.6326139905673
 20
369.0
 30
0.0
 11
292.9659473239007
 21
369.0
 31
0.0
 12
292.799280657234
 22
370.0
 32
0.0
 13
292.799280657234
 23
370.0
 33
0.0
  0
MTEXT
  5
320
330
1F6
100
AcDbEntity
  8
1
  6
Continuous
 62
     0
100
AcDbMText
 10
292.799280657234
 20
342.5
 30
0.0
 40
0.18
 41
0.0
 71
     5
 72
     1
  1
\A1;55
 73
     1
 44
1.0
  0
POINT
  5
321
330
1F6
100
AcDbEntity
  8
Defpoints
  6
Continuous
 62
     0
100
AcDbPoint
 10
277.0107874220637
 20
317.0603356003392
 30
0.0
  0
POINT
  5
322
330
1F6
100
AcDbEntity
  8
Defpoints
  6
Continuous
 62
     0
100
AcDbPoint
 10
279.649649328617
 20
370.0
 30
0.0
  0
POINT
  5
323
330
1F6
100
AcDbEntity
  8
Defpoints
  6
Continuous
 62
     0
100
AcDbPoint
 10
292.799280657234
 20
370.0
 30
0.0
  0
ENDBLK
  5
200
330
1F6
100
AcDbEntity
  8
0
100
AcDbBlockEnd
  0
BLOCK
  5
20B
330
202
100
AcDbEntity
  8
0
100
AcDbBlockBegin
  2
*D11
 70
     1
 10
0.0
 20
0.0
 30
0.0
  3
*D11
  1

  0
LINE
  5
32E
330
202
100
AcDbEntity
  8
1
  6
Continuous
 62
     0
370
    -2
100
AcDbLine
 10
277.0107874220637
 20
370.0
 30
0.0
 11
311.4584088422905
 21
370.0
 31
0.0
  0
LINE
  5
32F
330
202
100
AcDbEntity
  8
1
  6
Continuous
 62
     0
370
    -2
100
AcDbLine
 10
277.0107874220637
 20
270.0
 30
0.0
 11
311.4584088422905
 21
270.0
 31
0.0
  0
LINE
  5
330
330
202
100
AcDbEntity
  8
1
  6
Continuous
 62
     0
370
    -2
100
AcDbLine
 10
311.4584088422905
 20
369.0
 30
0.0
 11
311.4584088422905
 21
320.1799999999999
 31
0.0
  0
LINE
  5
331
330
202
100
AcDbEntity
  8
1
  6
Continuous
 62
     0
370
    -2
100
AcDbLine
 10
311.4584088422905
 20
271.0
 30
0.0
 11
311.4584088422905
 21
319.8199999999999
 31
0.0
  0
SOLID
  5
332
330
202
100
AcDbEntity
  8
1
  6
Continuous
 62
     0
100
AcDbTrace
 10
311.2917421756238
 20
369.0
 30
0.0
 11
311.6250755089572
 21
369.0
 31
0.0
 12
311.4584088422905
 22
370.0
 32
0.0
 13
311.4584088422905
 23
370.0
 33
0.0
  0
SOLID
  5
333
330
202
100
AcDbEntity
  8
1
  6
Continuous
 62
     0
100
AcDbTrace
 10
311.2917421756238
 20
271.0
 30
0.0
 11
311.6250755089572
 21
271.0
 31
0.0
 12
311.4584088422905
 22
270.0
 32
0.0
 13
311.4584088422905
 23
270.0
 33
0.0
  0
MTEXT
  5
334
330
202
100
AcDbEntity
  8
1
  6
Continuous
 62
     0
100
AcDbMText
 10
311.4584088422905
 20
320.0
 30
0.0
 40
0.18
 41
0.0
 71
     5
 72
     1
  1
\A1;99.5
 73
     1
 44
1.0
  0
POINT
  5
335
330
202
100
AcDbEntity
  8
Defpoints
  6
Continuous
 62
     0
100
AcDbPoint
 10
277.0107874220637
 20
370.0
 30
0.0
  0
POINT
  5
336
330
202
100
AcDbEntity
  8
Defpoints
  6
Continuous
 62
     0
100
AcDbPoint
 10
277.0107874220637
 20
270.0
 30
0.0
  0
POINT
  5
337
330
202
100
AcDbEntity
  8
Defpoints
  6
Continuous
 62
     0
100
AcDbPoint
 10
311.4584088422905
 20
270.0
 30
0.0
  0
ENDBLK
  5
20C
330
202
100
AcDbEntity
  8
0
100
AcDbBlockEnd
  0
BLOCK
  5
217
330
20E
100
AcDbEntity
  8
0
100
AcDbBlockBegin
  2
*D12
 70
     1
 10
0.0
 20
0.0
 30
0.0
  3
*D12
  1

  0
LINE
  5
353
330
20E
100
AcDbEntity
  8
1
  6
Continuous
 62
     0
370
    -2
100
AcDbLine
 10
154.0
 20
276.0
 30
0.0
 11
154.0
 21
250.4457003799693
 31
0.0
  0
LINE
  5
354
330
20E
100
AcDbEntity
  8
1
  6
Continuous
 62
     0
370
    -2
100
AcDbLine
 10
246.0
 20
276.0
 30
0.0
 11
246.0
 21
250.4457003799693
 31
0.0
  0
LINE
  5
355
330
20E
100
AcDbEntity
  8
1
  6
Continuous
 62
     0
370
    -2
100
AcDbLine
 10
155.0
 20
250.4457003799693
 30
0.0
 11
199.685
 21
250.4457003799693
 31
0.0
  0
LINE
  5
356
330
20E
100
AcDbEntity
  8
1
  6
Continuous
 62
     0
370
    -2
100
AcDbLine
 10
245.0
 20
250.4457003799693
 30
0.0
 11
200.315
 21
250.4457003799693
 31
0.0
  0
SOLID
  5
357
330
20E
100
AcDbEntity
  8
1
  6
Continuous
 62
     0
100
AcDbTrace
 10
155.0
 20
250.6123670466359
 30
0.0
 11
155.0
 21
250.2790337133026
 31
0.0
 12
154.0
 22
250.4457003799693
 32
0.0
 13
154.0
 23
250.4457003799693
 33
0.0
  0
SOLID
  5
358
330
20E
100
AcDbEntity
  8
1
  6
Continuous
 62
     0
100
AcDbTrace
 10
245.0
 20
250.6123670466359
 30
0.0
 11
245.0
 21
250.2790337133026
 31
0.0
 12
246.0
 22
250.4457003799693
 32
0.0
 13
246.0
 23
250.4457003799693
 33
0.0
  0
MTEXT
  5
359
330
20E
100
AcDbEntity
  8
1
  6
Continuous
 62
     0
100
AcDbMText
 10
200.0
 20
250.4457003799693
 30
0.0
 40
0.18
 41
0.0
 71
     5
 72
     1
  1
\A1;92φ
 73
     1
 44
1.0
  0
POINT
  5
35A
330
20E
100
AcDbEntity
  8
Defpoints
  6
Continuous
 62
     0
100
AcDbPoint
 10
154.0
 20
276.0
 30
0.0
  0
POINT
  5
35B
330
20E
100
AcDbEntity
  8
Defpoints
  6
Continuous
 62
     0
100
AcDbPoint
 10
246.0
 20
276.0
 30
0.0
  0
POINT
  5
35C
330
20E
100
AcDbEntity
  8
Defpoints
  6
Continuous
 62
     0
100
AcDbPoint
 10
246.0
 20
250.4457003799693
 30
0.0
  0
ENDBLK
  5
218
330
20E
100
AcDbEntity
  8
0
100
AcDbBlockEnd
  0
BLOCK
  5
223
330
21A
100
AcDbEntity
  8
0
100
AcDbBlockBegin
  2
*D13
 70
     1
 10
0.0
 20
0.0
 30
0.0
  3
*D13
  1

  0
LINE
  5
21B
330
21A
100
AcDbEntity
  8
1
  6
Continuous
 62
     0
370
    -2
100
AcDbLine
 10
133.5000159999998
 20
276.0
 30
0.0
 11
133.5000159999998
 21
240.0
 31
0.0
  0
LINE
  5
21C
330
21A
100
AcDbEntity
  8
1
  6
Continuous
 62
     0
370
    -2
100
AcDbLine
 10
266.500018
 20
276.0
 30
0.0
 11
266.500018
 21
240.0
 31
0.0
  0
LINE
  5
21D
330
21A
100
AcDbEntity
  8
1
  6
Continuous
 62
     0
370
    -2
100
AcDbLine
 10
134.5000159999999
 20
240.0
 30
0.0
 11
265.500018
 21
240.0
 31
0.0
  0
SOLID
  5
21E
330
21A
100
AcDbEntity
  8
1
  6
Continuous
 62
     0
100
AcDbTrace
 10
134.5000159999999
 20
240.1666666666665
 30
0.0
 11
134.5000159999999
 21
239.8333333333332
 31
0.0
 12
133.5000159999998
 22
240.0
 32
0.0
 13
133.5000159999998
 23
240.0
 33
0.0
  0
SOLID
  5
21F
330
21A
100
AcDbEntity
  8
1
  6
Continuous
 62
     0
100
AcDbTrace
 10
265.500018
 20
240.1666666666665
 30
0.0
 11
265.500018
 21
239.8333333333332
 31
0.0
 12
266.500018
 22
240.0
 32
0.0
 13
266.500018
 23
240.0
 33
0.0
  0
POINT
  5
220
330
21A
100
AcDbEntity
  8
Defpoints
  6
Continuous
 62
     0
100
AcDbPoint
 10
133.5000159999998
 20
276.0
 30
0.0
  0
POINT
  5
221
330
21A
100
AcDbEntity
  8
Defpoints
  6
Continuous
 62
     0
100
AcDbPoint
 10
266.500018
 20
276.0
 30
0.0
  0
POINT
  5
222
330
21A
100
AcDbEntity
  8
Defpoints
  6
Continuous
 62
     0
100
AcDbPoint
 10
266.500018
 20
240.0
 30
0.0
  0
ENDBLK
  5
224
330
21A
100
AcDbEntity
  8
0
100
AcDbBlockEnd
  0
ENDSEC
  0
SECTION
  2
ENTITIES
  0
ARC
  5
B9
330
1E
100
AcDbEntity
  8
1
  6
Continuous
 62
     7
100
AcDbCircle
 10
200.0000179999999
 20
160.000031
 30
0.0
 40
68.499972
100
AcDbArc
 50
22.499981
 51
36.099986
  0
ARC
  5
BA
330
1E
100
AcDbEntity
  8
1
  6
Continuous
 62
     7
100
AcDbCircle
 10
199.999962
 20
159.9999689999999
 30
0.0
 40
68.00005099999999
100
AcDbArc
 50
36.100001
 51
38.2
  0
ARC
  5
BB
330
1E
100
AcDbEntity
  8
1
  6
Continuous
 62
     7
100
AcDbCircle
 10
200.0000229999999
 20
160.0000379999999
 30
0.0
 40
68.49995799999999
100
AcDbArc
 50
38.19998599999999
 51
51.79999999999999
  0
ARC
  5
BC
330
1E
100
AcDbEntity
  8
1
  6
Continuous
 62
     7
100
AcDbCircle
 10
199.999977
 20
159.999979
 30
0.0
 40
68.000033
100
AcDbArc
 50
51.799999
 51
53.899997
  0
ARC
  5
BD
330
1E
100
AcDbEntity
  8
1
  6
Continuous
 62
     7
100
AcDbCircle
 10
200.0000179999999
 20
160.000031
 30
0.0
 40
68.499965
100
AcDbArc
 50
53.9
 51
67.500001
  0
LINE
  5
BE
330
1E
100
AcDbEntity
  8
1
  6
Continuous
 62
     7
100
AcDbLine
 10
240.0653509999999
 20
214.943316
 30
0.0
 11
240.359948
 21
215.3473089999998
 31
0.0
  0
LINE
  5
BF
330
1E
100
AcDbEntity
  8
1
  6
Continuous
 62
     7
100
AcDbLine
 10
242.051768
 20
213.438273
 30
0.0
 11
242.360971
 21
213.8311999999999
 31
0.0
  0
LINE
  5
C0
330
1E
100
AcDbEntity
  8
1
  6
Continuous
 62
     7
100
AcDbLine
 10
253.4382719999999
 20
202.051771
 30
0.0
 11
253.831198
 21
202.3609739999999
 31
0.0
  0
LINE
  5
C1
330
1E
100
AcDbEntity
  8
1
  6
Continuous
 62
     7
100
AcDbLine
 10
254.943315
 20
200.0653519999999
 30
0.0
 11
255.3473079999999
 21
200.359949
 31
0.0
  0
ARC
  5
C2
330
1E
100
AcDbEntity
  8
1
  6
Continuous
 62
     7
100
AcDbCircle
 10
200.0000179999999
 20
160.000031
 30
0.0
 40
68.499972
100
AcDbArc
 50
112.499981
 51
126.099986
  0
ARC
  5
C3
330
1E
100
AcDbEntity
  8
1
  6
Continuous
 62
     7
100
AcDbCircle
 10
200.00008
 20
159.999976
 30
0.0
 40
68.00005099999999
100
AcDbArc
 50
126.1000009999999
 51
128.1999999999999
  0
ARC
  5
C4
330
1E
100
AcDbEntity
  8
1
  6
Continuous
 62
     7
100
AcDbCircle
 10
200.000011
 20
160.000037
 30
0.0
 40
68.49995799999999
100
AcDbArc
 50
128.199986
 51
141.8
  0
ARC
  5
C5
330
1E
100
AcDbEntity
  8
1
  6
Continuous
 62
     7
100
AcDbCircle
 10
200.0000689999999
 20
159.99999
 30
0.0
 40
68.000033
100
AcDbArc
 50
141.799999
 51
143.8999969999999
  0
ARC
  5
C6
330
1E
100
AcDbEntity
  8
1
  6
Continuous
 62
     7
100
AcDbCircle
 10
200.0000179999999
 20
160.000031
 30
0.0
 40
68.499965
100
AcDbArc
 50
143.9
 51
157.500001
  0
LINE
  5
C7
330
1E
100
AcDbEntity
  8
1
  6
Continuous
 62
     7
100
AcDbLine
 10
145.056733
 20
200.0653639999999
 30
0.0
 11
144.6527389999999
 21
200.359961
 31
0.0
  0
LINE
  5
C8
330
1E
100
AcDbEntity
  8
1
  6
Continuous
 62
     7
100
AcDbLine
 10
146.561775
 20
202.051782
 30
0.0
 11
146.168848
 21
202.360985
 31
0.0
  0
LINE
  5
C9
330
1E
100
AcDbEntity
  8
1
  6
Continuous
 62
     7
100
AcDbLine
 10
157.948277
 20
213.438285
 30
0.0
 11
157.6390749999999
 21
213.831211
 31
0.0
  0
LINE
  5
CA
330
1E
100
AcDbEntity
  8
1
  6
Continuous
 62
     7
100
AcDbLine
 10
159.934697
 20
214.943329
 30
0.0
 11
159.6401
 21
215.347322
 31
0.0
  0
ARC
  5
CB
330
1E
100
AcDbEntity
  8
1
  6
Continuous
 62
     7
100
AcDbCircle
 10
199.999962
 20
160.000011
 30
0.0
 40
68.499972
100
AcDbArc
 50
202.499981
 51
216.0999859999999
  0
ARC
  5
CC
330
1E
100
AcDbEntity
  8
1
  6
Continuous
 62
     7
100
AcDbCircle
 10
200.0000169999999
 20
160.0000729999998
 30
0.0
 40
68.00005099999999
100
AcDbArc
 50
216.1000009999999
 51
218.1999999999999
  0
ARC
  5
CD
330
1E
100
AcDbEntity
  8
1
  6
Continuous
 62
     7
100
AcDbCircle
 10
199.999956
 20
160.0000029999999
 30
0.0
 40
68.49995799999999
100
AcDbArc
 50
218.199986
 51
231.8
  0
ARC
  5
CE
330
1E
100
AcDbEntity
  8
1
  6
Continuous
 62
     7
100
AcDbCircle
 10
200.0000029999999
 20
160.000062
 30
0.0
 40
68.000033
100
AcDbArc
 50
231.7999989999999
 51
233.8999969999999
  0
ARC
  5
CF
330
1E
100
AcDbEntity
  8
1
  6
Continuous
 62
     7
100
AcDbCircle
 10
199.999962
 20
160.000011
 30
0.0
 40
68.499965
100
AcDbArc
 50
233.8999999999999
 51
247.5000009999999
  0
LINE
  5
D0
330
1E
100
AcDbEntity
  8
1
  6
Continuous
 62
     7
100
AcDbLine
 10
159.9346289999999
 20
105.056725
 30
0.0
 11
159.640032
 21
104.652732
 31
0.0
  0
LINE
  5
D1
330
1E
100
AcDbEntity
  8
1
  6
Continuous
 62
     7
100
AcDbLine
 10
157.948211
 20
106.5617679999999
 30
0.0
 11
157.639008
 21
106.1688409999999
 31
0.0
  0
LINE
  5
D2
330
1E
100
AcDbEntity
  8
1
  6
Continuous
 62
     7
100
AcDbLine
 10
146.561708
 20
117.9482699999999
 30
0.0
 11
146.1687819999999
 21
117.6390679999999
 31
0.0
  0
LINE
  5
D3
330
1E
100
AcDbEntity
  8
1
  6
Continuous
 62
     7
100
AcDbLine
 10
145.0566639999999
 20
119.9346899999999
 30
0.0
 11
144.652671
 21
119.640093
 31
0.0
  0
ARC
  5
D4
330
1E
100
AcDbEntity
  8
1
  6
Continuous
 62
     7
100
AcDbCircle
 10
199.999959
 20
159.9999409999998
 30
0.0
 40
68.499972
100
AcDbArc
 50
292.499981
 51
306.0999859999999
  0
ARC
  5
D5
330
1E
100
AcDbEntity
  8
1
  6
Continuous
 62
     7
100
AcDbCircle
 10
199.999897
 20
159.999997
 30
0.0
 40
68.00005099999999
100
AcDbArc
 50
306.1000009999998
 51
308.1999999999998
  0
ARC
  5
D6
330
1E
100
AcDbEntity
  8
1
  6
Continuous
 62
     7
100
AcDbCircle
 10
199.999966
 20
159.999936
 30
0.0
 40
68.49995799999999
100
AcDbArc
 50
308.1999859999999
 51
321.7999999999999
  0
ARC
  5
D7
330
1E
100
AcDbEntity
  8
1
  6
Continuous
 62
     7
100
AcDbCircle
 10
199.999907
 20
159.999982
 30
0.0
 40
68.000033
100
AcDbArc
 50
321.799999
 51
323.899997
  0
ARC
  5
D8
330
1E
100
AcDbEntity
  8
1
  6
Continuous
 62
     7
100
AcDbCircle
 10
199.999959
 20
159.9999409999998
 30
0.0
 40
68.499965
100
AcDbArc
 50
323.8999999999998
 51
337.5000009999999
  0
LINE
  5
D9
330
1E
100
AcDbEntity
  8
1
  6
Continuous
 62
     7
100
AcDbLine
 10
254.9432439999999
 20
119.934608
 30
0.0
 11
255.347237
 21
119.640012
 31
0.0
  0
LINE
  5
DA
330
1E
100
AcDbEntity
  8
1
  6
Continuous
 62
     7
100
AcDbLine
 10
253.4382019999999
 20
117.948191
 30
0.0
 11
253.8311279999999
 21
117.6389879999998
 31
0.0
  0
LINE
  5
DB
330
1E
100
AcDbEntity
  8
1
  6
Continuous
 62
     7
100
AcDbLine
 10
242.051699
 20
106.5616879999998
 30
0.0
 11
242.360902
 21
106.168761
 31
0.0
  0
LINE
  5
DC
330
1E
100
AcDbEntity
  8
1
  6
Continuous
 62
     7
100
AcDbLine
 10
240.0652799999999
 20
105.0566439999998
 30
0.0
 11
240.359877
 21
104.652651
 31
0.0
  0
LINE
  5
DD
330
1E
100
AcDbEntity
  8
1
  6
Continuous
 62
     7
100
AcDbLine
 10
173.7861879999999
 20
96.714251
 30
0.0
 11
179.4999999999999
 21
96.738674
 31
0.0
  0
LINE
  5
DE
330
1E
100
AcDbEntity
  8
1
  6
Continuous
 62
     7
100
AcDbLine
 10
220.5
 20
96.738663
 30
0.0
 11
226.213817
 21
96.714242
 31
0.0
  0
ARC
  5
DF
330
1E
100
AcDbEntity
  8
1
  6
Continuous
 62
     7
100
AcDbCircle
 10
199.999962
 20
159.9999689999999
 30
0.0
 40
66.499938
100
AcDbArc
 50
252.044968
 51
287.9550899999998
  0
LINE
  5
E0
330
1E
100
AcDbEntity
  8
1
  6
Continuous
 62
     7
100
AcDbLine
 10
263.2858109999999
 20
133.7862029999999
 30
0.0
 11
263.261387
 21
139.5000149999999
 31
0.0
  0
LINE
  5
E1
330
1E
100
AcDbEntity
  8
1
  6
Continuous
 62
     7
100
AcDbLine
 10
263.261399
 20
180.5000149999999
 30
0.0
 11
263.28582
 21
186.2138309999999
 31
0.0
  0
ARC
  5
E2
330
1E
100
AcDbEntity
  8
1
  6
Continuous
 62
     7
100
AcDbCircle
 10
200.000092
 20
159.999977
 30
0.0
 40
66.499938
100
AcDbArc
 50
342.0449679999998
 51
17.95509
  0
LINE
  5
E3
330
1E
100
AcDbEntity
  8
1
  6
Continuous
 62
     7
100
AcDbLine
 10
226.2137979999998
 20
223.2857559999999
 30
0.0
 11
220.499986
 21
223.2613329999999
 31
0.0
  0
LINE
  5
E4
330
1E
100
AcDbEntity
  8
1
  6
Continuous
 62
     7
100
AcDbLine
 10
179.499986
 20
223.261344
 30
0.0
 11
173.786169
 21
223.285765
 31
0.0
  0
ARC
  5
E5
330
1E
100
AcDbEntity
  8
1
  6
Continuous
 62
     7
100
AcDbCircle
 10
200.0000229999999
 20
160.0000379999999
 30
0.0
 40
66.499938
100
AcDbArc
 50
72.04496800000002
 51
107.9550899999998
  0
LINE
  5
E6
330
1E
100
AcDbEntity
  8
1
  6
Continuous
 62
     7
100
AcDbLine
 10
136.714236
 20
186.2138739999999
 30
0.0
 11
136.738659
 21
180.500061
 31
0.0
  0
LINE
  5
E7
330
1E
100
AcDbEntity
  8
1
  6
Continuous
 62
     7
100
AcDbLine
 10
136.738648
 20
139.500061
 30
0.0
 11
136.7142269999999
 21
133.786245
 31
0.0
  0
ARC
  5
E8
330
1E
100
AcDbEntity
  8
1
  6
Continuous
 62
     7
100
AcDbCircle
 10
199.999954
 20
160.000099
 30
0.0
 40
66.499938
100
AcDbArc
 50
162.0449679999999
 51
197.9550899999999
  0
CIRCLE
  5
E9
330
1E
100
AcDbEntity
  8
1
  6
Continuous
 62
     7
100
AcDbCircle
 10
200.0
 20
160.0
 30
0.0
 40
46.0
  0
CIRCLE
  5
EA
330
1E
100
AcDbEntity
  8
1
  6
Continuous
 62
     7
100
AcDbCircle
 10
158.987806
 20
201.0121939999999
 30
0.0
 40
4.0
  0
ARC
  5
EB
330
1E
100
AcDbEntity
  8
1
  6
Continuous
 62
     7
100
AcDbCircle
 10
155.791684
 20
204.2083159999999
 30
0.0
 40
10.52
100
AcDbArc
 50
225.0
 51
45.0
  0
LINE
  5
EC
330
1E
100
AcDbEntity
  8
1
  6
Continuous
 62
     7
100
AcDbLine
 10
148.352733
 20
196.769364
 30
0.0
 11
145.056733
 21
200.0653639999999
 31
0.0
  0
LINE
  5
ED
330
1E
100
AcDbEntity
  8
1
  6
Continuous
 62
     7
100
AcDbLine
 10
163.2304479999999
 20
211.647079
 30
0.0
 11
159.934697
 21
214.943329
 31
0.0
  0
LINE
  5
EE
330
1E
100
AcDbEntity
  8
1
  6
Continuous
 62
     7
100
AcDbLine
 10
159.505445
 20
202.944046
 30
0.0
 11
157.5735919999999
 21
202.426406
 31
0.0
  0
LINE
  5
EF
330
1E
100
AcDbEntity
  8
1
  6
Continuous
 62
     7
100
AcDbLine
 10
157.5735919999999
 20
202.426406
 30
0.0
 11
157.055956
 21
200.494556
 31
0.0
  0
LINE
  5
F0
330
1E
100
AcDbEntity
  8
1
  6
Continuous
 62
     7
100
AcDbLine
 10
157.055956
 20
200.494556
 30
0.0
 11
158.4701689999999
 21
199.0803429999999
 31
0.0
  0
LINE
  5
F1
330
1E
100
AcDbEntity
  8
1
  6
Continuous
 62
     7
100
AcDbLine
 10
158.4701689999999
 20
199.0803429999999
 30
0.0
 11
160.4020189999999
 21
199.5979789999999
 31
0.0
  0
LINE
  5
F2
330
1E
100
AcDbEntity
  8
1
  6
Continuous
 62
     7
100
AcDbLine
 10
160.4020189999999
 20
199.5979789999999
 30
0.0
 11
160.9196589999999
 21
201.5298319999998
 31
0.0
  0
LINE
  5
F3
330
1E
100
AcDbEntity
  8
1
  6
Continuous
 62
     7
100
AcDbLine
 10
160.9196589999999
 20
201.5298319999998
 30
0.0
 11
159.505445
 21
202.944046
 31
0.0
  0
CIRCLE
  5
F4
330
1E
100
AcDbEntity
  8
1
  6
Continuous
 62
     7
100
AcDbCircle
 10
158.987806
 20
118.9878079999999
 30
0.0
 40
4.0
  0
ARC
  5
F5
330
1E
100
AcDbEntity
  8
1
  6
Continuous
 62
     7
100
AcDbCircle
 10
155.791684
 20
115.791687
 30
0.0
 40
10.52
100
AcDbArc
 50
315.0
 51
135.0
  0
LINE
  5
F6
330
1E
100
AcDbEntity
  8
1
  6
Continuous
 62
     7
100
AcDbLine
 10
163.230636
 20
108.352735
 30
0.0
 11
159.934636
 21
105.056735
 31
0.0
  0
LINE
  5
F7
330
1E
100
AcDbEntity
  8
1
  6
Continuous
 62
     7
100
AcDbLine
 10
148.352921
 20
123.23045
 30
0.0
 11
145.0566709999999
 21
119.934699
 31
0.0
  0
LINE
  5
F8
330
1E
100
AcDbEntity
  8
1
  6
Continuous
 62
     7
100
AcDbLine
 10
157.055954
 20
119.505447
 30
0.0
 11
157.5735939999999
 21
117.5735949999999
 31
0.0
  0
LINE
  5
F9
330
1E
100
AcDbEntity
  8
1
  6
Continuous
 62
     7
100
AcDbLine
 10
157.5735939999999
 20
117.5735949999999
 30
0.0
 11
159.505444
 21
117.055959
 31
0.0
  0
LINE
  5
FA
330
1E
100
AcDbEntity
  8
1
  6
Continuous
 62
     7
100
AcDbLine
 10
159.505444
 20
117.055959
 30
0.0
 11
160.9196569999999
 21
118.4701709999999
 31
0.0
  0
LINE
  5
FB
330
1E
100
AcDbEntity
  8
1
  6
Continuous
 62
     7
100
AcDbLine
 10
160.9196569999999
 20
118.4701709999999
 30
0.0
 11
160.4020209999999
 21
120.402022
 31
0.0
  0
LINE
  5
FC
330
1E
100
AcDbEntity
  8
1
  6
Continuous
 62
     7
100
AcDbLine
 10
160.4020209999999
 20
120.402022
 30
0.0
 11
158.470168
 21
120.919662
 31
0.0
  0
LINE
  5
FD
330
1E
100
AcDbEntity
  8
1
  6
Continuous
 62
     7
100
AcDbLine
 10
158.470168
 20
120.919662
 30
0.0
 11
157.055954
 21
119.505447
 31
0.0
  0
CIRCLE
  5
FE
330
1E
100
AcDbEntity
  8
1
  6
Continuous
 62
     7
100
AcDbCircle
 10
241.0121919999999
 20
118.9878079999999
 30
0.0
 40
4.0
  0
ARC
  5
FF
330
1E
100
AcDbEntity
  8
1
  6
Continuous
 62
     7
100
AcDbCircle
 10
244.2083129999999
 20
115.791687
 30
0.0
 40
10.52
100
AcDbArc
 50
45.0
 51
225.0
  0
LINE
  5
100
330
1E
100
AcDbEntity
  8
1
  6
Continuous
 62
     7
100
AcDbLine
 10
251.647265
 20
123.2306379999998
 30
0.0
 11
254.9432649999999
 21
119.9346389999998
 31
0.0
  0
LINE
  5
101
330
1E
100
AcDbEntity
  8
1
  6
Continuous
 62
     7
100
AcDbLine
 10
236.7695499999999
 20
108.352923
 30
0.0
 11
240.0653009999999
 21
105.056674
 31
0.0
  0
LINE
  5
102
330
1E
100
AcDbEntity
  8
1
  6
Continuous
 62
     7
100
AcDbLine
 10
240.4945529999999
 20
117.0559569999999
 30
0.0
 11
242.426405
 21
117.5735969999999
 31
0.0
  0
LINE
  5
103
330
1E
100
AcDbEntity
  8
1
  6
Continuous
 62
     7
100
AcDbLine
 10
242.426405
 20
117.5735969999999
 30
0.0
 11
242.944041
 21
119.505447
 31
0.0
  0
LINE
  5
104
330
1E
100
AcDbEntity
  8
1
  6
Continuous
 62
     7
100
AcDbLine
 10
242.944041
 20
119.505447
 30
0.0
 11
241.5298289999999
 21
120.91966
 31
0.0
  0
LINE
  5
105
330
1E
100
AcDbEntity
  8
1
  6
Continuous
 62
     7
100
AcDbLine
 10
241.5298289999999
 20
120.91966
 30
0.0
 11
239.5979779999999
 21
120.4020239999999
 31
0.0
  0
LINE
  5
106
330
1E
100
AcDbEntity
  8
1
  6
Continuous
 62
     7
100
AcDbLine
 10
239.5979779999999
 20
120.4020239999999
 30
0.0
 11
239.0803379999999
 21
118.4701699999999
 31
0.0
  0
LINE
  5
107
330
1E
100
AcDbEntity
  8
1
  6
Continuous
 62
     7
100
AcDbLine
 10
239.0803379999999
 20
118.4701699999999
 30
0.0
 11
240.4945529999999
 21
117.0559569999999
 31
0.0
  0
CIRCLE
  5
108
330
1E
100
AcDbEntity
  8
1
  6
Continuous
 62
     7
100
AcDbCircle
 10
241.0121919999999
 20
201.0121939999999
 30
0.0
 40
4.0
  0
ARC
  5
109
330
1E
100
AcDbEntity
  8
1
  6
Continuous
 62
     7
100
AcDbCircle
 10
244.2083129999999
 20
204.2083159999999
 30
0.0
 40
10.52
100
AcDbArc
 50
135.0
 51
315.0
  0
LINE
  5
10A
330
1E
100
AcDbEntity
  8
1
  6
Continuous
 62
     7
100
AcDbLine
 10
236.769362
 20
211.6472669999999
 30
0.0
 11
240.0653609999999
 21
214.9432669999999
 31
0.0
  0
LINE
  5
10B
330
1E
100
AcDbEntity
  8
1
  6
Continuous
 62
     7
100
AcDbLine
 10
251.647077
 20
196.769552
 30
0.0
 11
254.9433259999999
 21
200.065303
 31
0.0
  0
LINE
  5
10C
330
1E
100
AcDbEntity
  8
1
  6
Continuous
 62
     7
100
AcDbLine
 10
242.944043
 20
200.4945549999999
 30
0.0
 11
242.4264029999999
 21
202.426408
 31
0.0
  0
LINE
  5
10D
330
1E
100
AcDbEntity
  8
1
  6
Continuous
 62
     7
100
AcDbLine
 10
242.4264029999999
 20
202.426408
 30
0.0
 11
240.4945529999999
 21
202.944044
 31
0.0
  0
LINE
  5
10E
330
1E
100
AcDbEntity
  8
1
  6
Continuous
 62
     7
100
AcDbLine
 10
240.4945529999999
 20
202.944044
 30
0.0
 11
239.0803399999999
 21
201.5298309999999
 31
0.0
  0
LINE
  5
10F
330
1E
100
AcDbEntity
  8
1
  6
Continuous
 62
     7
100
AcDbLine
 10
239.0803399999999
 20
201.5298309999999
 30
0.0
 11
239.5979759999999
 21
199.597981
 31
0.0
  0
LINE
  5
110
330
1E
100
AcDbEntity
  8
1
  6
Continuous
 62
     7
100
AcDbLine
 10
239.5979759999999
 20
199.597981
 30
0.0
 11
241.5298299999999
 21
199.080341
 31
0.0
  0
LINE
  5
111
330
1E
100
AcDbEntity
  8
1
  6
Continuous
 62
     7
100
AcDbLine
 10
241.5298299999999
 20
199.080341
 30
0.0
 11
242.944043
 21
200.4945549999999
 31
0.0
  0
LINE
  5
112
330
1E
100
AcDbEntity
  8
1
  6
Continuous
 62
     7
100
AcDbLine
 10
260.0521679999999
 20
184.874424
 30
0.0
 11
252.4369609999999
 21
184.9672789999999
 31
0.0
  0
LINE
  5
113
330
1E
100
AcDbEntity
  8
1
  6
Continuous
 62
     7
100
AcDbLine
 10
252.4369609999999
 20
184.9672789999999
 30
0.0
 11
250.813372
 21
181.047589
 31
0.0
  0
LINE
  5
114
330
1E
100
AcDbEntity
  8
1
  6
Continuous
 62
     7
100
AcDbLine
 10
250.813372
 20
181.047589
 30
0.0
 11
254.733062
 21
179.424001
 31
0.0
  0
LINE
  5
115
330
1E
100
AcDbEntity
  8
1
  6
Continuous
 62
     7
100
AcDbLine
 10
254.733062
 20
179.424001
 30
0.0
 11
260.0521679999999
 21
184.874424
 31
0.0
  0
LINE
  5
116
330
1E
100
AcDbEntity
  8
1
  6
Continuous
 62
     7
100
AcDbLine
 10
224.874425
 20
220.052167
 30
0.0
 11
219.424002
 21
214.733062
 31
0.0
  0
LINE
  5
117
330
1E
100
AcDbEntity
  8
1
  6
Continuous
 62
     7
100
AcDbLine
 10
219.424002
 20
214.733062
 30
0.0
 11
221.04759
 21
210.8133709999999
 31
0.0
  0
LINE
  5
118
330
1E
100
AcDbEntity
  8
1
  6
Continuous
 62
     7
100
AcDbLine
 10
221.04759
 20
210.8133709999999
 30
0.0
 11
224.9672789999999
 21
212.436961
 31
0.0
  0
LINE
  5
119
330
1E
100
AcDbEntity
  8
1
  6
Continuous
 62
     7
100
AcDbLine
 10
224.9672789999999
 20
212.436961
 30
0.0
 11
224.874425
 21
220.052167
 31
0.0
  0
LINE
  5
11A
330
1E
100
AcDbEntity
  8
1
  6
Continuous
 62
     7
100
AcDbLine
 10
175.125581
 20
220.052167
 30
0.0
 11
175.0327259999999
 21
212.43696
 31
0.0
  0
LINE
  5
11B
330
1E
100
AcDbEntity
  8
1
  6
Continuous
 62
     7
100
AcDbLine
 10
175.0327259999999
 20
212.43696
 30
0.0
 11
178.952416
 21
210.8133709999999
 31
0.0
  0
LINE
  5
11C
330
1E
100
AcDbEntity
  8
1
  6
Continuous
 62
     7
100
AcDbLine
 10
178.952416
 20
210.8133709999999
 30
0.0
 11
180.576004
 21
214.733061
 31
0.0
  0
LINE
  5
11D
330
1E
100
AcDbEntity
  8
1
  6
Continuous
 62
     7
100
AcDbLine
 10
180.576004
 20
214.733061
 30
0.0
 11
175.125581
 21
220.052167
 31
0.0
  0
LINE
  5
11E
330
1E
100
AcDbEntity
  8
1
  6
Continuous
 62
     7
100
AcDbLine
 10
139.9478339999999
 20
184.874422
 30
0.0
 11
145.2669399999998
 21
179.423999
 31
0.0
  0
LINE
  5
11F
330
1E
100
AcDbEntity
  8
1
  6
Continuous
 62
     7
100
AcDbLine
 10
145.2669399999998
 20
179.423999
 30
0.0
 11
149.18663
 21
181.047588
 31
0.0
  0
LINE
  5
120
330
1E
100
AcDbEntity
  8
1
  6
Continuous
 62
     7
100
AcDbLine
 10
149.18663
 20
181.047588
 30
0.0
 11
147.5630409999999
 21
184.9672769999999
 31
0.0
  0
LINE
  5
121
330
1E
100
AcDbEntity
  8
1
  6
Continuous
 62
     7
100
AcDbLine
 10
147.5630409999999
 20
184.9672769999999
 30
0.0
 11
139.9478339999999
 21
184.874422
 31
0.0
  0
LINE
  5
122
330
1E
100
AcDbEntity
  8
1
  6
Continuous
 62
     7
100
AcDbLine
 10
139.9478379999999
 20
135.125581
 30
0.0
 11
147.5630449999998
 21
135.032726
 31
0.0
  0
LINE
  5
123
330
1E
100
AcDbEntity
  8
1
  6
Continuous
 62
     7
100
AcDbLine
 10
147.5630449999998
 20
135.032726
 30
0.0
 11
149.186634
 21
138.952416
 31
0.0
  0
LINE
  5
124
330
1E
100
AcDbEntity
  8
1
  6
Continuous
 62
     7
100
AcDbLine
 10
149.186634
 20
138.952416
 30
0.0
 11
145.266944
 21
140.576004
 31
0.0
  0
LINE
  5
125
330
1E
100
AcDbEntity
  8
1
  6
Continuous
 62
     7
100
AcDbLine
 10
145.266944
 20
140.576004
 30
0.0
 11
139.9478379999999
 21
135.125581
 31
0.0
  0
LINE
  5
126
330
1E
100
AcDbEntity
  8
1
  6
Continuous
 62
     7
100
AcDbLine
 10
175.12558
 20
99.94784000000001
 30
0.0
 11
180.576003
 21
105.2669459999999
 31
0.0
  0
LINE
  5
127
330
1E
100
AcDbEntity
  8
1
  6
Continuous
 62
     7
100
AcDbLine
 10
180.576003
 20
105.2669459999999
 30
0.0
 11
178.9524139999999
 21
109.186636
 31
0.0
  0
LINE
  5
128
330
1E
100
AcDbEntity
  8
1
  6
Continuous
 62
     7
100
AcDbLine
 10
178.9524139999999
 20
109.186636
 30
0.0
 11
175.0327249999999
 21
107.5630469999999
 31
0.0
  0
LINE
  5
129
330
1E
100
AcDbEntity
  8
1
  6
Continuous
 62
     7
100
AcDbLine
 10
175.0327249999999
 20
107.5630469999999
 30
0.0
 11
175.12558
 21
99.94784000000001
 31
0.0
  0
LINE
  5
12A
330
1E
100
AcDbEntity
  8
1
  6
Continuous
 62
     7
100
AcDbLine
 10
224.874422
 20
99.947841
 30
0.0
 11
224.967278
 21
107.563048
 31
0.0
  0
LINE
  5
12B
330
1E
100
AcDbEntity
  8
1
  6
Continuous
 62
     7
100
AcDbLine
 10
224.967278
 20
107.563048
 30
0.0
 11
221.047588
 21
109.1866379999999
 31
0.0
  0
LINE
  5
12C
330
1E
100
AcDbEntity
  8
1
  6
Continuous
 62
     7
100
AcDbLine
 10
221.047588
 20
109.1866379999999
 30
0.0
 11
219.424
 21
105.266948
 31
0.0
  0
LINE
  5
12D
330
1E
100
AcDbEntity
  8
1
  6
Continuous
 62
     7
100
AcDbLine
 10
219.424
 20
105.266948
 30
0.0
 11
224.874422
 21
99.947841
 31
0.0
  0
LINE
  5
12E
330
1E
100
AcDbEntity
  8
1
  6
Continuous
 62
     7
100
AcDbLine
 10
260.052165
 20
135.125584
 30
0.0
 11
254.733059
 21
140.576007
 31
0.0
  0
LINE
  5
12F
330
1E
100
AcDbEntity
  8
1
  6
Continuous
 62
     7
100
AcDbLine
 10
254.733059
 20
140.576007
 30
0.0
 11
250.813369
 21
138.9524179999999
 31
0.0
  0
LINE
  5
130
330
1E
100
AcDbEntity
  8
1
  6
Continuous
 62
     7
100
AcDbLine
 10
250.813369
 20
138.9524179999999
 30
0.0
 11
252.436958
 21
135.032729
 31
0.0
  0
LINE
  5
131
330
1E
100
AcDbEntity
  8
1
  6
Continuous
 62
     7
100
AcDbLine
 10
252.436958
 20
135.032729
 30
0.0
 11
260.052165
 21
135.125584
 31
0.0
  0
ARC
  5
132
330
1E
100
AcDbEntity
  8
1
  6
Continuous
 62
     7
100
AcDbCircle
 10
200.0000179999999
 20
470.000031
 30
0.0
 40
68.499972
100
AcDbArc
 50
22.499981
 51
36.099986
  0
ARC
  5
133
330
1E
100
AcDbEntity
  8
1
  6
Continuous
 62
     7
100
AcDbCircle
 10
199.999962
 20
469.999969
 30
0.0
 40
68.00005099999999
100
AcDbArc
 50
36.100001
 51
38.2
  0
ARC
  5
134
330
1E
100
AcDbEntity
  8
1
  6
Continuous
 62
     7
100
AcDbCircle
 10
200.0000229999999
 20
470.0000379999998
 30
0.0
 40
68.49995799999999
100
AcDbArc
 50
38.19998599999999
 51
51.79999999999999
  0
ARC
  5
135
330
1E
100
AcDbEntity
  8
1
  6
Continuous
 62
     7
100
AcDbCircle
 10
199.999977
 20
469.9999789999998
 30
0.0
 40
68.000033
100
AcDbArc
 50
51.799999
 51
53.899997
  0
ARC
  5
136
330
1E
100
AcDbEntity
  8
1
  6
Continuous
 62
     7
100
AcDbCircle
 10
200.0000179999999
 20
470.000031
 30
0.0
 40
68.499965
100
AcDbArc
 50
53.9
 51
67.500001
  0
LINE
  5
137
330
1E
100
AcDbEntity
  8
1
  6
Continuous
 62
     7
100
AcDbLine
 10
240.0653509999999
 20
524.9433159999998
 30
0.0
 11
240.359948
 21
525.3473089999999
 31
0.0
  0
LINE
  5
138
330
1E
100
AcDbEntity
  8
1
  6
Continuous
 62
     7
100
AcDbLine
 10
242.051768
 20
523.438273
 30
0.0
 11
242.360971
 21
523.8311999999998
 31
0.0
  0
LINE
  5
139
330
1E
100
AcDbEntity
  8
1
  6
Continuous
 62
     7
100
AcDbLine
 10
253.4382719999999
 20
512.051771
 30
0.0
 11
253.831198
 21
512.360974
 31
0.0
  0
LINE
  5
13A
330
1E
100
AcDbEntity
  8
1
  6
Continuous
 62
     7
100
AcDbLine
 10
254.943315
 20
510.0653519999998
 30
0.0
 11
255.3473079999999
 21
510.359949
 31
0.0
  0
ARC
  5
13B
330
1E
100
AcDbEntity
  8
1
  6
Continuous
 62
     7
100
AcDbCircle
 10
200.0000179999999
 20
470.000031
 30
0.0
 40
68.499972
100
AcDbArc
 50
112.499981
 51
126.099986
  0
ARC
  5
13C
330
1E
100
AcDbEntity
  8
1
  6
Continuous
 62
     7
100
AcDbCircle
 10
200.00008
 20
469.9999759999998
 30
0.0
 40
68.00005099999999
100
AcDbArc
 50
126.1000009999999
 51
128.1999999999999
  0
ARC
  5
13D
330
1E
100
AcDbEntity
  8
1
  6
Continuous
 62
     7
100
AcDbCircle
 10
200.000011
 20
470.000037
 30
0.0
 40
68.49995799999999
100
AcDbArc
 50
128.199986
 51
141.8
  0
ARC
  5
13E
330
1E
100
AcDbEntity
  8
1
  6
Continuous
 62
     7
100
AcDbCircle
 10
200.0000689999999
 20
469.99999
 30
0.0
 40
68.000033
100
AcDbArc
 50
141.799999
 51
143.8999969999999
  0
ARC
  5
13F
330
1E
100
AcDbEntity
  8
1
  6
Continuous
 62
     7
100
AcDbCircle
 10
200.0000179999999
 20
470.000031
 30
0.0
 40
68.499965
100
AcDbArc
 50
143.9
 51
157.500001
  0
LINE
  5
140
330
1E
100
AcDbEntity
  8
1
  6
Continuous
 62
     7
100
AcDbLine
 10
145.056733
 20
510.0653639999999
 30
0.0
 11
144.6527389999999
 21
510.359961
 31
0.0
  0
LINE
  5
141
330
1E
100
AcDbEntity
  8
1
  6
Continuous
 62
     7
100
AcDbLine
 10
146.561775
 20
512.0517819999998
 30
0.0
 11
146.168848
 21
512.3609849999998
 31
0.0
  0
LINE
  5
142
330
1E
100
AcDbEntity
  8
1
  6
Continuous
 62
     7
100
AcDbLine
 10
157.948277
 20
523.4382849999998
 30
0.0
 11
157.6390749999999
 21
523.831211
 31
0.0
  0
LINE
  5
143
330
1E
100
AcDbEntity
  8
1
  6
Continuous
 62
     7
100
AcDbLine
 10
159.934697
 20
524.9433289999998
 30
0.0
 11
159.6401
 21
525.347322
 31
0.0
  0
ARC
  5
144
330
1E
100
AcDbEntity
  8
1
  6
Continuous
 62
     7
100
AcDbCircle
 10
199.999962
 20
470.000011
 30
0.0
 40
68.499972
100
AcDbArc
 50
202.499981
 51
216.0999859999999
  0
ARC
  5
145
330
1E
100
AcDbEntity
  8
1
  6
Continuous
 62
     7
100
AcDbCircle
 10
200.0000169999999
 20
470.000073
 30
0.0
 40
68.00005099999999
100
AcDbArc
 50
216.1000009999999
 51
218.1999999999999
  0
ARC
  5
146
330
1E
100
AcDbEntity
  8
1
  6
Continuous
 62
     7
100
AcDbCircle
 10
199.999956
 20
470.000003
 30
0.0
 40
68.49995799999999
100
AcDbArc
 50
218.199986
 51
231.8
  0
ARC
  5
147
330
1E
100
AcDbEntity
  8
1
  6
Continuous
 62
     7
100
AcDbCircle
 10
200.0000029999999
 20
470.0000619999998
 30
0.0
 40
68.000033
100
AcDbArc
 50
231.7999989999999
 51
233.8999969999999
  0
ARC
  5
148
330
1E
100
AcDbEntity
  8
1
  6
Continuous
 62
     7
100
AcDbCircle
 10
199.999962
 20
470.000011
 30
0.0
 40
68.499965
100
AcDbArc
 50
233.8999999999999
 51
247.5000009999999
  0
LINE
  5
149
330
1E
100
AcDbEntity
  8
1
  6
Continuous
 62
     7
100
AcDbLine
 10
159.9346289999999
 20
415.0567249999999
 30
0.0
 11
159.640032
 21
414.6527319999998
 31
0.0
  0
LINE
  5
14A
330
1E
100
AcDbEntity
  8
1
  6
Continuous
 62
     7
100
AcDbLine
 10
157.948211
 20
416.561768
 30
0.0
 11
157.639008
 21
416.168841
 31
0.0
  0
LINE
  5
14B
330
1E
100
AcDbEntity
  8
1
  6
Continuous
 62
     7
100
AcDbLine
 10
146.561708
 20
427.94827
 30
0.0
 11
146.1687819999999
 21
427.6390679999998
 31
0.0
  0
LINE
  5
14C
330
1E
100
AcDbEntity
  8
1
  6
Continuous
 62
     7
100
AcDbLine
 10
145.0566639999999
 20
429.93469
 30
0.0
 11
144.652671
 21
429.6400929999999
 31
0.0
  0
ARC
  5
14D
330
1E
100
AcDbEntity
  8
1
  6
Continuous
 62
     7
100
AcDbCircle
 10
199.999959
 20
469.999941
 30
0.0
 40
68.499972
100
AcDbArc
 50
292.499981
 51
306.0999859999999
  0
ARC
  5
14E
330
1E
100
AcDbEntity
  8
1
  6
Continuous
 62
     7
100
AcDbCircle
 10
199.999897
 20
469.9999969999998
 30
0.0
 40
68.00005099999999
100
AcDbArc
 50
306.1000009999998
 51
308.1999999999998
  0
ARC
  5
14F
330
1E
100
AcDbEntity
  8
1
  6
Continuous
 62
     7
100
AcDbCircle
 10
199.999966
 20
469.999936
 30
0.0
 40
68.49995799999999
100
AcDbArc
 50
308.1999859999999
 51
321.7999999999999
  0
ARC
  5
150
330
1E
100
AcDbEntity
  8
1
  6
Continuous
 62
     7
100
AcDbCircle
 10
199.999907
 20
469.999982
 30
0.0
 40
68.000033
100
AcDbArc
 50
321.799999
 51
323.899997
  0
ARC
  5
151
330
1E
100
AcDbEntity
  8
1
  6
Continuous
 62
     7
100
AcDbCircle
 10
199.999959
 20
469.999941
 30
0.0
 40
68.499965
100
AcDbArc
 50
323.8999999999998
 51
337.5000009999999
  0
LINE
  5
152
330
1E
100
AcDbEntity
  8
1
  6
Continuous
 62
     7
100
AcDbLine
 10
254.9432439999999
 20
429.934608
 30
0.0
 11
255.347237
 21
429.640012
 31
0.0
  0
LINE
  5
153
330
1E
100
AcDbEntity
  8
1
  6
Continuous
 62
     7
100
AcDbLine
 10
253.4382019999999
 20
427.948191
 30
0.0
 11
253.8311279999999
 21
427.6389879999999
 31
0.0
  0
LINE
  5
154
330
1E
100
AcDbEntity
  8
1
  6
Continuous
 62
     7
100
AcDbLine
 10
242.051699
 20
416.5616879999998
 30
0.0
 11
242.360902
 21
416.1687609999998
 31
0.0
  0
LINE
  5
155
330
1E
100
AcDbEntity
  8
1
  6
Continuous
 62
     7
100
AcDbLine
 10
240.0652799999999
 20
415.056644
 30
0.0
 11
240.359877
 21
414.652651
 31
0.0
  0
LINE
  5
156
330
1E
100
AcDbEntity
  8
1
  6
Continuous
 62
     7
100
AcDbLine
 10
173.7861879999999
 20
406.714251
 30
0.0
 11
179.4999999999999
 21
406.7386739999998
 31
0.0
  0
LINE
  5
157
330
1E
100
AcDbEntity
  8
1
  6
Continuous
 62
     7
100
AcDbLine
 10
220.5
 20
406.7386629999998
 30
0.0
 11
226.213817
 21
406.714242
 31
0.0
  0
ARC
  5
158
330
1E
100
AcDbEntity
  8
1
  6
Continuous
 62
     7
100
AcDbCircle
 10
199.999962
 20
469.999969
 30
0.0
 40
66.499938
100
AcDbArc
 50
252.044968
 51
287.9550899999998
  0
LINE
  5
159
330
1E
100
AcDbEntity
  8
1
  6
Continuous
 62
     7
100
AcDbLine
 10
263.2858109999999
 20
443.7862029999998
 30
0.0
 11
263.261387
 21
449.500015
 31
0.0
  0
LINE
  5
15A
330
1E
100
AcDbEntity
  8
1
  6
Continuous
 62
     7
100
AcDbLine
 10
263.261399
 20
490.500015
 30
0.0
 11
263.28582
 21
496.2138309999998
 31
0.0
  0
ARC
  5
15B
330
1E
100
AcDbEntity
  8
1
  6
Continuous
 62
     7
100
AcDbCircle
 10
200.000092
 20
469.9999769999998
 30
0.0
 40
66.499938
100
AcDbArc
 50
342.0449679999998
 51
17.95509
  0
LINE
  5
15C
330
1E
100
AcDbEntity
  8
1
  6
Continuous
 62
     7
100
AcDbLine
 10
226.2137979999998
 20
533.2857559999998
 30
0.0
 11
220.499986
 21
533.261333
 31
0.0
  0
LINE
  5
15D
330
1E
100
AcDbEntity
  8
1
  6
Continuous
 62
     7
100
AcDbLine
 10
179.499986
 20
533.261344
 30
0.0
 11
173.786169
 21
533.2857650000002
 31
0.0
  0
ARC
  5
15E
330
1E
100
AcDbEntity
  8
1
  6
Continuous
 62
     7
100
AcDbCircle
 10
200.0000229999999
 20
470.0000379999998
 30
0.0
 40
66.499938
100
AcDbArc
 50
72.04496800000002
 51
107.9550899999998
  0
LINE
  5
15F
330
1E
100
AcDbEntity
  8
1
  6
Continuous
 62
     7
100
AcDbLine
 10
136.714236
 20
496.213874
 30
0.0
 11
136.738659
 21
490.500061
 31
0.0
  0
LINE
  5
160
330
1E
100
AcDbEntity
  8
1
  6
Continuous
 62
     7
100
AcDbLine
 10
136.738648
 20
449.5000609999998
 30
0.0
 11
136.7142269999999
 21
443.7862449999998
 31
0.0
  0
ARC
  5
161
330
1E
100
AcDbEntity
  8
1
  6
Continuous
 62
     7
100
AcDbCircle
 10
199.999954
 20
470.000099
 30
0.0
 40
66.499938
100
AcDbArc
 50
162.0449679999999
 51
197.9550899999999
  0
CIRCLE
  5
162
330
1E
100
AcDbEntity
  8
1
  6
Continuous
 62
     7
100
AcDbCircle
 10
200.0
 20
470.0
 30
0.0
 40
7.5
  0
CIRCLE
  5
163
330
1E
100
AcDbEntity
  8
1
  6
Continuous
 62
     7
100
AcDbCircle
 10
200.0
 20
470.0
 30
0.0
 40
15.0
  0
CIRCLE
  5
164
330
1E
100
AcDbEntity
  8
1
  6
Continuous
 62
     7
100
AcDbCircle
 10
200.0
 20
428.0
 30
0.0
 40
13.0
  0
LINE
  5
165
330
1E
100
AcDbEntity
  8
1
  6
Continuous
 62
     7
100
AcDbLine
 10
204.9497469999999
 20
434.363961
 30
0.0
 11
193.6360389999999
 21
423.0502529999998
 31
0.0
  0
LINE
  5
166
330
1E
100
AcDbEntity
  8
1
  6
Continuous
 62
     7
100
AcDbLine
 10
193.6360389999999
 20
423.0502529999998
 30
0.0
 11
195.0502529999999
 21
421.636039
 31
0.0
  0
LINE
  5
167
330
1E
100
AcDbEntity
  8
1
  6
Continuous
 62
     7
100
AcDbLine
 10
195.0502529999999
 20
421.636039
 30
0.0
 11
206.363961
 21
432.9497469999998
 31
0.0
  0
LINE
  5
168
330
1E
100
AcDbEntity
  8
1
  6
Continuous
 62
     7
100
AcDbLine
 10
206.363961
 20
432.9497469999998
 30
0.0
 11
204.9497469999999
 21
434.363961
 31
0.0
  0
CIRCLE
  5
169
330
1E
100
AcDbEntity
  8
1
  6
Continuous
 62
     7
100
AcDbCircle
 10
228.867512
 20
520.0
 30
0.0
 40
2.5
  0
CIRCLE
  5
16A
330
1E
100
AcDbEntity
  8
1
  6
Continuous
 62
     7
100
AcDbCircle
 10
228.867512
 20
420.0
 30
0.0
 40
2.5
  0
CIRCLE
  5
16B
330
1E
100
AcDbEntity
  8
1
  6
Continuous
 62
     7
100
AcDbCircle
 10
142.2649709999999
 20
470.0
 30
0.0
 40
2.5
  0
DIMENSION
  5
16C
330
1E
100
AcDbEntity
  8
1
  6
Continuous
 62
     7
100
AcDbDimension
  2
*D7
 10
223.8675128936737
 20
411.3397471251816
 30
0.0
 11
180.5662420963681
 21
436.3397474762588
 31
0.0
 70
    32
  1
100
 71
     5
 42
100.0000014043088
100
AcDbAlignedDimension
 13
140.2649699999998
 23
466.535898
 33
0.0
 14
226.867512
 24
416.5358979999998
 34
0.0
 50
330.0
100
AcDbRotatedDimension
  0
DIMENSION
  5
179
330
1E
100
AcDbEntity
  8
1
  6
Continuous
 62
     7
100
AcDbDimension
  2
*D8
 10
223.8675107106609
 20
528.6602531918056
 30
0.0
 11
180.5662402883553
 21
503.6602530572346
 31
0.0
 70
    32
  1
100
 71
     5
 42
100.0000005382832
100
AcDbAlignedDimension
 13
140.264969
 23
473.4641019999998
 33
0.0
 14
226.86751
 24
523.4641019999997
 34
0.0
 50
30.0
100
AcDbRotatedDimension
  0
DIMENSION
  5
185
330
1E
100
AcDbEntity
  8
1
  6
Continuous
 62
     7
100
AcDbDimension
  2
*D9
 10
238.867512
 20
520.0
 30
0.0
 11
238.8675119999999
 21
470.0
 31
0.0
 70
    32
  1
100
 71
     5
 42
99.99999999999994
100
AcDbAlignedDimension
 13
232.867512
 23
420.0
 33
0.0
 14
232.867512
 24
520.0
 34
0.0
 50
90.0
100
AcDbRotatedDimension
  0
ARC
  5
195
330
1E
100
AcDbEntity
  8
1
  6
Continuous
 62
     7
100
AcDbCircle
 10
200.0
 20
316.0111109999998
 30
0.0
 40
46.01111099999999
100
AcDbArc
 50
181.2591969999999
 51
358.7408029999999
  0
LINE
  5
196
330
1E
100
AcDbEntity
  8
1
  6
Continuous
 62
     7
100
AcDbLine
 10
154.0
 20
315.0
 30
0.0
 11
246.0
 21
315.0
 31
0.0
  0
ARC
  5
197
330
1E
100
AcDbEntity
  8
1
  6
Continuous
 62
     7
100
AcDbCircle
 10
331.7173259999999
 20
348.4999999999998
 30
0.0
 40
66.50035600000001
100
AcDbArc
 50
168.726786
 51
191.2732139999999
  0
LINE
  5
198
330
1E
100
AcDbEntity
  8
1
  6
Continuous
 62
     7
100
AcDbLine
 10
266.500018
 20
361.5
 30
0.0
 11
266.500018
 21
370.0
 31
0.0
  0
LINE
  5
199
330
1E
100
AcDbEntity
  8
1
  6
Continuous
 62
     7
100
AcDbLine
 10
266.500018
 20
370.0
 30
0.0
 11
133.5000159999998
 21
370.0
 31
0.0
  0
LINE
  5
19A
330
1E
100
AcDbEntity
  8
1
  6
Continuous
 62
     7
100
AcDbLine
 10
266.500018
 20
335.4999999999999
 30
0.0
 11
266.500018
 21
325.4999999999999
 31
0.0
  0
LINE
  5
19B
330
1E
100
AcDbEntity
  8
1
  6
Continuous
 62
     7
100
AcDbLine
 10
264.500018
 20
325.4999999999999
 30
0.0
 11
264.500018
 21
324.0
 31
0.0
  0
LINE
  5
19C
330
1E
100
AcDbEntity
  8
1
  6
Continuous
 62
     7
100
AcDbLine
 10
135.5000159999999
 20
325.4999999999999
 30
0.0
 11
135.5000159999999
 21
324.0
 31
0.0
  0
LINE
  5
19D
330
1E
100
AcDbEntity
  8
1
  6
Continuous
 62
     7
100
AcDbLine
 10
133.5000159999998
 20
370.0
 30
0.0
 11
133.5000159999998
 21
325.4999999999999
 31
0.0
  0
LINE
  5
19E
330
1E
100
AcDbEntity
  8
1
  6
Continuous
 62
     7
100
AcDbLine
 10
133.5000159999998
 20
325.4999999999999
 30
0.0
 11
266.500018
 21
325.4999999999999
 31
0.0
  0
LINE
  5
19F
330
1E
100
AcDbEntity
  8
1
  6
Continuous
 62
     7
100
AcDbLine
 10
266.500018
 20
324.0
 30
0.0
 11
133.5000159999998
 21
324.0
 31
0.0
  0
LINE
  5
1A0
330
1E
100
AcDbEntity
  8
1
  6
Continuous
 62
     7
100
AcDbLine
 10
136.714236
 20
370.0
 30
0.0
 11
136.714236
 21
325.4999999999999
 31
0.0
  0
LINE
  5
1A1
330
1E
100
AcDbEntity
  8
1
  6
Continuous
 62
     7
100
AcDbLine
 10
144.652714
 20
317.0
 30
0.0
 11
144.652714
 21
318.0
 31
0.0
  0
LINE
  5
1A2
330
1E
100
AcDbEntity
  8
1
  6
Continuous
 62
     7
100
AcDbLine
 10
144.652714
 20
318.0
 30
0.0
 11
159.6400889999999
 21
318.0
 31
0.0
  0
LINE
  5
1A3
330
1E
100
AcDbEntity
  8
1
  6
Continuous
 62
     7
100
AcDbLine
 10
159.6400889999999
 20
318.0
 30
0.0
 11
159.6400889999999
 21
317.0
 31
0.0
  0
LINE
  5
1A4
330
1E
100
AcDbEntity
  8
1
  6
Continuous
 62
     7
100
AcDbLine
 10
255.347312
 20
317.0
 30
0.0
 11
255.347312
 21
318.0
 31
0.0
  0
LINE
  5
1A5
330
1E
100
AcDbEntity
  8
1
  6
Continuous
 62
     7
100
AcDbLine
 10
255.347312
 20
318.0
 30
0.0
 11
240.359948
 21
318.0
 31
0.0
  0
LINE
  5
1A6
330
1E
100
AcDbEntity
  8
1
  6
Continuous
 62
     7
100
AcDbLine
 10
240.359948
 20
318.0
 30
0.0
 11
240.359948
 21
317.0
 31
0.0
  0
LINE
  5
1A7
330
1E
100
AcDbEntity
  8
1
  6
Continuous
 62
     7
100
AcDbLine
 10
240.359948
 20
317.0
 30
0.0
 11
159.6400889999999
 21
317.0
 31
0.0
  0
LINE
  5
1A8
330
1E
100
AcDbEntity
  8
1
  6
Continuous
 62
     7
100
AcDbLine
 10
246.0
 20
315.0
 30
0.0
 11
264.6942169999999
 21
316.8238249999999
 31
0.0
  0
LINE
  5
1A9
330
1E
100
AcDbEntity
  8
1
  6
Continuous
 62
     7
100
AcDbLine
 10
266.500018
 20
324.0
 30
0.0
 11
266.500018
 21
318.814374
 31
0.0
  0
ARC
  5
1AA
330
1E
100
AcDbEntity
  8
1
  6
Continuous
 62
     7
100
AcDbCircle
 10
264.500018
 20
318.814374
 30
0.0
 40
2.0
100
AcDbArc
 50
275.572193
 51
0.0
  0
LINE
  5
1AB
330
1E
100
AcDbEntity
  8
1
  6
Continuous
 62
     7
100
AcDbLine
 10
135.305816
 20
316.8238239999999
 30
0.0
 11
154.0
 21
315.0
 31
0.0
  0
LINE
  5
1AC
330
1E
100
AcDbEntity
  8
1
  6
Continuous
 62
     7
100
AcDbLine
 10
133.5000159999998
 20
324.0
 30
0.0
 11
133.5000159999998
 21
318.814374
 31
0.0
  0
ARC
  5
1AD
330
1E
100
AcDbEntity
  8
1
  6
Continuous
 62
     7
100
AcDbCircle
 10
135.5000159999999
 20
318.814374
 30
0.0
 40
2.0
100
AcDbArc
 50
180.0
 51
264.427798
  0
LINE
  5
1AE
330
1E
100
AcDbEntity
  8
1
  6
Continuous
 62
     7
100
AcDbLine
 10
134.65856
 20
317.0
 30
0.0
 11
144.652714
 21
317.0
 31
0.0
  0
LINE
  5
1AF
330
1E
100
AcDbEntity
  8
1
  6
Continuous
 62
     7
100
AcDbLine
 10
255.347312
 20
317.0
 30
0.0
 11
265.341473
 21
317.0
 31
0.0
  0
LINE
  5
1B0
330
1E
100
AcDbEntity
  8
1
  6
Continuous
 62
     7
100
AcDbLine
 10
144.652714
 20
370.0
 30
0.0
 11
144.652714
 21
325.4999999999999
 31
0.0
  0
LINE
  5
1B1
330
1E
100
AcDbEntity
  8
1
  6
Continuous
 62
     7
100
AcDbLine
 10
144.652714
 20
324.0
 30
0.0
 11
144.652714
 21
318.0
 31
0.0
  0
LINE
  5
1B2
330
1E
100
AcDbEntity
  8
1
  6
Continuous
 62
     7
100
AcDbLine
 10
146.1688249999999
 20
318.0
 30
0.0
 11
146.1688249999999
 21
324.0
 31
0.0
  0
LINE
  5
1B3
330
1E
100
AcDbEntity
  8
1
  6
Continuous
 62
     7
100
AcDbLine
 10
146.1688249999999
 20
325.4999999999999
 30
0.0
 11
146.1688249999999
 21
370.0
 31
0.0
  0
LINE
  5
1B4
330
1E
100
AcDbEntity
  8
1
  6
Continuous
 62
     7
100
AcDbLine
 10
136.714236
 20
324.0
 30
0.0
 11
136.714236
 21
317.0
 31
0.0
  0
LINE
  5
1B5
330
1E
100
AcDbEntity
  8
1
  6
Continuous
 62
     7
100
AcDbLine
 10
157.639062
 20
324.0
 30
0.0
 11
157.639062
 21
318.0
 31
0.0
  0
LINE
  5
1B6
330
1E
100
AcDbEntity
  8
1
  6
Continuous
 62
     7
100
AcDbLine
 10
159.6400889999999
 20
318.0
 30
0.0
 11
159.6400889999999
 21
324.0
 31
0.0
  0
LINE
  5
1B7
330
1E
100
AcDbEntity
  8
1
  6
Continuous
 62
     7
100
AcDbLine
 10
157.639062
 20
325.4999999999999
 30
0.0
 11
157.639062
 21
370.0
 31
0.0
  0
LINE
  5
1B8
330
1E
100
AcDbEntity
  8
1
  6
Continuous
 62
     7
100
AcDbLine
 10
159.6400889999999
 20
370.0
 30
0.0
 11
159.6400889999999
 21
325.4999999999999
 31
0.0
  0
LINE
  5
1B9
330
1E
100
AcDbEntity
  8
1
  6
Continuous
 62
     7
100
AcDbLine
 10
173.7862269999999
 20
325.4999999999999
 30
0.0
 11
173.7862269999999
 21
370.0
 31
0.0
  0
LINE
  5
1BA
330
1E
100
AcDbEntity
  8
1
  6
Continuous
 62
     7
100
AcDbLine
 10
179.5000499999999
 20
370.0
 30
0.0
 11
179.5000499999999
 21
325.4999999999999
 31
0.0
  0
LINE
  5
1BB
330
1E
100
AcDbEntity
  8
1
  6
Continuous
 62
     7
100
AcDbLine
 10
173.7862269999999
 20
317.0
 30
0.0
 11
173.7862269999999
 21
324.0
 31
0.0
  0
LINE
  5
1BC
330
1E
100
AcDbEntity
  8
1
  6
Continuous
 62
     7
100
AcDbLine
 10
179.5000499999999
 20
317.0
 30
0.0
 11
179.5000499999999
 21
324.0
 31
0.0
  0
LINE
  5
1BD
330
1E
100
AcDbEntity
  8
1
  6
Continuous
 62
     7
100
AcDbLine
 10
263.2857969999999
 20
370.0
 30
0.0
 11
263.2857969999999
 21
325.4999999999999
 31
0.0
  0
LINE
  5
1BE
330
1E
100
AcDbEntity
  8
1
  6
Continuous
 62
     7
100
AcDbLine
 10
255.34732
 20
370.0
 30
0.0
 11
255.34732
 21
325.4999999999999
 31
0.0
  0
LINE
  5
1BF
330
1E
100
AcDbEntity
  8
1
  6
Continuous
 62
     7
100
AcDbLine
 10
255.34732
 20
324.0
 30
0.0
 11
255.34732
 21
318.0
 31
0.0
  0
LINE
  5
1C0
330
1E
100
AcDbEntity
  8
1
  6
Continuous
 62
     7
100
AcDbLine
 10
253.8312089999999
 20
318.0
 30
0.0
 11
253.8312089999999
 21
324.0
 31
0.0
  0
LINE
  5
1C1
330
1E
100
AcDbEntity
  8
1
  6
Continuous
 62
     7
100
AcDbLine
 10
253.8312089999999
 20
325.4999999999999
 30
0.0
 11
253.8312089999999
 21
370.0
 31
0.0
  0
LINE
  5
1C2
330
1E
100
AcDbEntity
  8
1
  6
Continuous
 62
     7
100
AcDbLine
 10
263.2857969999999
 20
324.0
 30
0.0
 11
263.2857969999999
 21
317.0
 31
0.0
  0
LINE
  5
1C3
330
1E
100
AcDbEntity
  8
1
  6
Continuous
 62
     7
100
AcDbLine
 10
242.360971
 20
324.0
 30
0.0
 11
242.360971
 21
318.0
 31
0.0
  0
LINE
  5
1C4
330
1E
100
AcDbEntity
  8
1
  6
Continuous
 62
     7
100
AcDbLine
 10
240.3599439999999
 20
318.0
 30
0.0
 11
240.3599439999999
 21
324.0
 31
0.0
  0
LINE
  5
1C5
330
1E
100
AcDbEntity
  8
1
  6
Continuous
 62
     7
100
AcDbLine
 10
242.360971
 20
325.4999999999999
 30
0.0
 11
242.360971
 21
370.0
 31
0.0
  0
LINE
  5
1C6
330
1E
100
AcDbEntity
  8
1
  6
Continuous
 62
     7
100
AcDbLine
 10
240.3599439999999
 20
370.0
 30
0.0
 11
240.3599439999999
 21
325.4999999999999
 31
0.0
  0
LINE
  5
1C7
330
1E
100
AcDbEntity
  8
1
  6
Continuous
 62
     7
100
AcDbLine
 10
226.2138069999999
 20
325.4999999999999
 30
0.0
 11
226.2138069999999
 21
370.0
 31
0.0
  0
LINE
  5
1C8
330
1E
100
AcDbEntity
  8
1
  6
Continuous
 62
     7
100
AcDbLine
 10
220.4999839999999
 20
370.0
 30
0.0
 11
220.4999839999999
 21
325.4999999999999
 31
0.0
  0
LINE
  5
1C9
330
1E
100
AcDbEntity
  8
1
  6
Continuous
 62
     7
100
AcDbLine
 10
226.2138069999999
 20
317.0
 30
0.0
 11
226.2138069999999
 21
324.0
 31
0.0
  0
LINE
  5
1CA
330
1E
100
AcDbEntity
  8
1
  6
Continuous
 62
     7
100
AcDbLine
 10
220.4999839999999
 20
317.0
 30
0.0
 11
220.4999839999999
 21
324.0
 31
0.0
  0
LINE
  5
1CB
330
1E
100
AcDbEntity
  8
1
  6
Continuous
 62
     7
100
AcDbLine
 10
154.987806
 20
315.8
 30
0.0
 11
154.987806
 21
318.0
 31
0.0
  0
LINE
  5
1CC
330
1E
100
AcDbEntity
  8
1
  6
Continuous
 62
     7
100
AcDbLine
 10
154.987806
 20
317.3999999999998
 30
0.0
 11
159.6400889999999
 21
317.3999999999998
 31
0.0
  0
LINE
  5
1CD
330
1E
100
AcDbEntity
  8
1
  6
Continuous
 62
     7
100
AcDbLine
 10
159.6400889999999
 20
316.9999989999999
 30
0.0
 11
163.230444
 21
315.585367
 31
0.0
  0
ARC
  5
1CE
330
1E
100
AcDbEntity
  8
1
  6
Continuous
 62
     7
100
AcDbCircle
 10
158.987806
 20
325.4
 30
0.0
 40
10.4
100
AcDbArc
 50
247.3801349999999
 51
291.736479
  0
LINE
  5
1CF
330
1E
100
AcDbEntity
  8
1
  6
Continuous
 62
     7
100
AcDbLine
 10
154.987806
 20
315.8
 30
0.0
 11
162.6857009999999
 21
315.8
 31
0.0
  0
LINE
  5
1D0
330
1E
100
AcDbEntity
  8
1
  6
Continuous
 62
     7
100
AcDbLine
 10
163.230444
 20
315.585366
 30
0.0
 11
162.5683229999999
 21
315.635785
 31
0.0
  0
LINE
  5
1D1
330
1E
100
AcDbEntity
  8
1
  6
Continuous
 62
     7
100
AcDbLine
 10
154.987806
 20
316.213016
 30
0.0
 11
144.6527129999998
 21
317.0
 31
0.0
  0
LINE
  5
1D2
330
1E
100
AcDbEntity
  8
1
  6
Continuous
 62
     7
100
AcDbLine
 10
245.0122279999999
 20
315.8
 30
0.0
 11
245.0122279999999
 21
318.0
 31
0.0
  0
LINE
  5
1D3
330
1E
100
AcDbEntity
  8
1
  6
Continuous
 62
     7
100
AcDbLine
 10
245.0122279999999
 20
317.3999999999998
 30
0.0
 11
240.3599439999999
 21
317.3999999999998
 31
0.0
  0
LINE
  5
1D4
330
1E
100
AcDbEntity
  8
1
  6
Continuous
 62
     7
100
AcDbLine
 10
240.3599439999999
 20
316.9999989999999
 30
0.0
 11
236.76959
 21
315.585367
 31
0.0
  0
ARC
  5
1D5
330
1E
100
AcDbEntity
  8
1
  6
Continuous
 62
     7
100
AcDbCircle
 10
241.0122279999999
 20
325.4
 30
0.0
 40
10.4
100
AcDbArc
 50
248.2635209999999
 51
292.6198649999999
  0
LINE
  5
1D6
330
1E
100
AcDbEntity
  8
1
  6
Continuous
 62
     7
100
AcDbLine
 10
245.0122279999999
 20
315.8
 30
0.0
 11
237.3143329999999
 21
315.8
 31
0.0
  0
LINE
  5
1D7
330
1E
100
AcDbEntity
  8
1
  6
Continuous
 62
     7
100
AcDbLine
 10
236.76959
 20
315.585366
 30
0.0
 11
237.4317109999999
 21
315.635785
 31
0.0
  0
LINE
  5
1D8
330
1E
100
AcDbEntity
  8
1
  6
Continuous
 62
     7
100
AcDbLine
 10
245.0122279999999
 20
316.213016
 30
0.0
 11
255.3473209999999
 21
317.0
 31
0.0
  0
LINE
  5
1D9
330
1E
100
AcDbEntity
  8
1
  6
Continuous
 62
     7
100
AcDbLine
 10
230.1175109999999
 20
417.8349359999998
 30
0.0
 11
246.188019
 21
390.0
 31
0.0
  0
LINE
  5
1DA
330
1E
100
AcDbEntity
  8
1
  6
Continuous
 62
     7
100
AcDbLine
 10
246.188019
 20
390.0
 30
0.0
 11
299.898771
 21
390.0
 31
0.0
  0
TEXT
  5
1DB
330
1E
100
AcDbEntity
  8
1
  6
Continuous
 62
     7
100
AcDbText
 10
247.8987709999999
 20
390.0
 30
0.0
 40
6.0
  1
取付穴
 41
0.691489
  7
KANJI
100
AcDbText
  0
LINE
  5
1DC
330
1E
100
AcDbEntity
  8
1
  6
Continuous
 62
     7
100
AcDbLine
 10
230.1175109999999
 20
417.8349359999998
 30
0.0
 11
232.9459379999999
 21
415.006509
 31
0.0
  0
LINE
  5
1DD
330
1E
100
AcDbEntity
  8
1
  6
Continuous
 62
     7
100
AcDbLine
 10
230.1175109999999
 20
417.8349359999998
 30
0.0
 11
231.152787
 21
413.971233
 31
0.0
  0
LINE
  5
1DE
330
1E
100
AcDbEntity
  8
1
  6
HIDDEN
 62
     7
100
AcDbLine
 10
210.4999999999999
 20
370.0
 30
0.0
 11
210.4999999999999
 21
374.0
 31
0.0
  0
LINE
  5
1DF
330
1E
100
AcDbEntity
  8
1
  6
HIDDEN
 62
     7
100
AcDbLine
 10
205.250002
 20
370.0
 30
0.0
 11
205.250002
 21
374.0
 31
0.0
  0
LINE
  5
1E0
330
1E
100
AcDbEntity
  8
1
  6
HIDDEN
 62
     7
100
AcDbLine
 10
194.749999
 20
370.0
 30
0.0
 11
194.749999
 21
374.0
 31
0.0
  0
LINE
  5
1E1
330
1E
100
AcDbEntity
  8
1
  6
HIDDEN
 62
     7
100
AcDbLine
 10
189.4999999999999
 20
370.0
 30
0.0
 11
189.4999999999999
 21
374.0
 31
0.0
  0
LINE
  5
1E2
330
1E
100
AcDbEntity
  8
1
  6
HIDDEN
 62
     7
100
AcDbLine
 10
205.250002
 20
375.4999999999998
 30
0.0
 11
205.250002
 21
383.0
 31
0.0
  0
LINE
  5
1E3
330
1E
100
AcDbEntity
  8
1
  6
HIDDEN
 62
     7
100
AcDbLine
 10
194.749999
 20
375.4999999999998
 30
0.0
 11
194.749999
 21
383.0
 31
0.0
  0
ARC
  5
1E4
330
1E
100
AcDbEntity
  8
1
  6
HIDDEN
 62
     7
100
AcDbCircle
 10
207.8750009999999
 20
381.4531259999998
 30
0.0
 40
3.046874
100
AcDbArc
 50
30.510222
 51
149.489778
  0
ARC
  5
1E5
330
1E
100
AcDbEntity
  8
1
  6
HIDDEN
 62
     7
100
AcDbCircle
 10
200.0
 20
374.562496
 30
0.0
 40
9.937503999999997
100
AcDbArc
 50
58.109215
 51
121.8907849999999
  0
ARC
  5
1E6
330
1E
100
AcDbEntity
  8
1
  6
HIDDEN
 62
     7
100
AcDbCircle
 10
192.125
 20
381.4531259999998
 30
0.0
 40
3.046874
100
AcDbArc
 50
30.51022899999999
 51
149.489771
  0
LINE
  5
1E7
330
1E
100
AcDbEntity
  8
1
  6
HIDDEN
 62
     7
100
AcDbLine
 10
189.4999999999999
 20
383.0
 30
0.0
 11
189.4999999999999
 21
375.4999999999998
 31
0.0
  0
LINE
  5
1E8
330
1E
100
AcDbEntity
  8
1
  6
HIDDEN
 62
     7
100
AcDbLine
 10
189.9
 20
384.5
 30
0.0
 11
189.4999999999999
 21
383.0
 31
0.0
  0
LINE
  5
1E9
330
1E
100
AcDbEntity
  8
1
  6
HIDDEN
 62
     7
100
AcDbLine
 10
210.0999999999999
 20
384.5
 30
0.0
 11
189.9
 21
384.5
 31
0.0
  0
LINE
  5
1EA
330
1E
100
AcDbEntity
  8
1
  6
HIDDEN
 62
     7
100
AcDbLine
 10
210.4999999999999
 20
383.0
 30
0.0
 11
210.0999999999999
 21
384.5
 31
0.0
  0
LINE
  5
1EB
330
1E
100
AcDbEntity
  8
1
  6
HIDDEN
 62
     7
100
AcDbLine
 10
210.4999999999999
 20
375.4999999999998
 30
0.0
 11
210.4999999999999
 21
383.0
 31
0.0
  0
ARC
  5
1EC
330
1E
100
AcDbEntity
  8
1
  6
HIDDEN
 62
     7
100
AcDbCircle
 10
204.6999999999999
 20
386.0
 30
0.0
 40
4.0
100
AcDbArc
 50
0.0
 51
90.0
  0
LINE
  5
1ED
330
1E
100
AcDbEntity
  8
1
  6
HIDDEN
 62
     7
100
AcDbLine
 10
208.6999999999999
 20
386.0
 30
0.0
 11
208.6999999999999
 21
384.5
 31
0.0
  0
LINE
  5
1EE
330
1E
100
AcDbEntity
  8
1
  6
HIDDEN
 62
     7
100
AcDbLine
 10
195.3
 20
390.0
 30
0.0
 11
204.6999999999999
 21
390.0
 31
0.0
  0
ARC
  5
1EF
330
1E
100
AcDbEntity
  8
1
  6
HIDDEN
 62
     7
100
AcDbCircle
 10
195.3
 20
386.0
 30
0.0
 40
4.0
100
AcDbArc
 50
90.0
 51
180.0
  0
LINE
  5
1F0
330
1E
100
AcDbEntity
  8
1
  6
HIDDEN
 62
     7
100
AcDbLine
 10
191.3
 20
384.5
 30
0.0
 11
191.3
 21
386.0
 31
0.0
  0
LINE
  5
1F1
330
1E
100
AcDbEntity
  8
1
  6
HIDDEN
 62
     7
100
AcDbLine
 10
189.4999999999999
 20
374.0
 30
0.0
 11
210.4999999999999
 21
374.0
 31
0.0
  0
LINE
  5
1F2
330
1E
100
AcDbEntity
  8
1
  6
HIDDEN
 62
     7
100
AcDbLine
 10
210.4999999999999
 20
374.0
 30
0.0
 11
210.4999999999999
 21
375.4999999999998
 31
0.0
  0
LINE
  5
1F3
330
1E
100
AcDbEntity
  8
1
  6
HIDDEN
 62
     7
100
AcDbLine
 10
210.4999999999999
 20
375.4999999999998
 30
0.0
 11
189.4999999999999
 21
375.4999999999998
 31
0.0
  0
LINE
  5
1F4
330
1E
100
AcDbEntity
  8
1
  6
HIDDEN
 62
     7
100
AcDbLine
 10
189.4999999999999
 20
375.4999999999998
 30
0.0
 11
189.4999999999999
 21
374.0
 31
0.0
  0
LINE
  5
33F
330
1E
100
AcDbEntity
  8
0
100
AcDbLine
 10
278.9803748896645
 20
315.0
 30
0.0
 11
294.9100072233648
 21
315.0
 31
0.0
  0
LINE
  5
340
330
1E
100
AcDbEntity
  8
0
100
AcDbLine
 10
278.9803748896645
 20
370.0
 30
0.0
 11
294.9100072233648
 21
370.0
 31
0.0
  0
LINE
  5
341
330
1E
100
AcDbEntity
  8
0
100
AcDbLine
 10
294.9100072233648
 20
316.0
 30
0.0
 11
294.9100072233648
 21
342.32
 31
0.0
  0
LINE
  5
342
330
1E
100
AcDbEntity
  8
0
100
AcDbLine
 10
294.9100072233648
 20
369.0
 30
0.0
 11
294.9100072233648
 21
342.68
 31
0.0
  0
SOLID
  5
343
330
1E
100
AcDbEntity
  8
0
100
AcDbTrace
 10
294.7433405566981
 20
316.0
 30
0.0
 11
295.0766738900313
 21
316.0
 31
0.0
 12
294.9100072233648
 22
315.0
 32
0.0
 13
294.9100072233648
 23
315.0
 33
0.0
  0
SOLID
  5
344
330
1E
100
AcDbEntity
  8
0
100
AcDbTrace
 10
294.7433405566981
 20
369.0
 30
0.0
 11
295.0766738900313
 21
369.0
 31
0.0
 12
294.9100072233648
 22
370.0
 32
0.0
 13
294.9100072233648
 23
370.0
 33
0.0
  0
MTEXT
  5
345
330
1E
100
AcDbEntity
  8
0
100
AcDbMText
 10
290.4755354551117
 20
342.5
 30
0.0
 40
5.0
 41
0.0
 71
     5
 72
     1
  1
\A1;55
 11
0.0000000000000001
 21
1.0
 31
0.0
 73
     1
 44
1.0
  0
LINE
  5
346
330
1E
100
AcDbEntity
  8
0
100
AcDbLine
 10
278.9803748896645
 20
270.0
 30
0.0
 11
316.7072990586503
 21
270.0
 31
0.0
  0
LINE
  5
347
330
1E
100
AcDbEntity
  8
0
100
AcDbLine
 10
278.9803748896645
 20
370.0
 30
0.0
 11
316.7072990586503
 21
370.0
 31
0.0
  0
LINE
  5
348
330
1E
100
AcDbEntity
  8
0
100
AcDbLine
 10
316.7072990586503
 20
271.0
 30
0.0
 11
316.7072990586503
 21
319.8199999999999
 31
0.0
  0
LINE
  5
349
330
1E
100
AcDbEntity
  8
0
100
AcDbLine
 10
316.7072990586503
 20
369.0
 30
0.0
 11
316.7072990586503
 21
320.1799999999999
 31
0.0
  0
SOLID
  5
34A
330
1E
100
AcDbEntity
  8
0
100
AcDbTrace
 10
316.5406323919838
 20
271.0
 30
0.0
 11
316.8739657253171
 21
271.0
 31
0.0
 12
316.7072990586503
 22
270.0
 32
0.0
 13
316.7072990586503
 23
270.0
 33
0.0
  0
SOLID
  5
34B
330
1E
100
AcDbEntity
  8
0
100
AcDbTrace
 10
316.5406323919838
 20
369.0
 30
0.0
 11
316.8739657253171
 21
369.0
 31
0.0
 12
316.7072990586503
 22
370.0
 32
0.0
 13
316.7072990586503
 23
370.0
 33
0.0
  0
MTEXT
  5
34C
330
1E
100
AcDbEntity
  8
0
100
AcDbMText
 10
312.6003748789073
 20
320.0
 30
0.0
 40
5.0
 41
0.0
 71
     5
 72
     1
  1
\A1;99.5
 11
0.0000000000000001
 21
1.0
 31
0.0
 73
     1
 44
1.0
  0
LINE
  5
35D
330
1E
100
AcDbEntity
  8
0
100
AcDbLine
 10
154.0000000223525
 20
275.6793320171343
 30
0.0
 11
154.0000000223525
 21
253.6935926435454
 31
0.0
  0
LINE
  5
35E
330
1E
100
AcDbEntity
  8
0
100
AcDbLine
 10
246.0
 20
275.6793320171343
 30
0.0
 11
246.0
 21
253.6935926435454
 31
0.0
  0
LINE
  5
35F
330
1E
100
AcDbEntity
  8
0
100
AcDbLine
 10
155.0000000223525
 20
253.6935926435454
 30
0.0
 11
199.7600000111761
 21
253.6935926435454
 31
0.0
  0
LINE
  5
360
330
1E
100
AcDbEntity
  8
0
100
AcDbLine
 10
245.0
 20
253.6935926435454
 30
0.0
 11
200.2400000111761
 21
253.6935926435454
 31
0.0
  0
SOLID
  5
361
330
1E
100
AcDbEntity
  8
0
100
AcDbTrace
 10
155.0000000223525
 20
253.8602593102121
 30
0.0
 11
155.0000000223525
 21
253.5269259768788
 31
0.0
 12
154.0000000223525
 22
253.6935926435454
 32
0.0
 13
154.0000000223525
 23
253.6935926435454
 33
0.0
  0
SOLID
  5
362
330
1E
100
AcDbEntity
  8
0
100
AcDbTrace
 10
245.0
 20
253.8602593102121
 30
0.0
 11
245.0
 21
253.5269259768788
 31
0.0
 12
246.0
 22
253.6935926435454
 32
0.0
 13
246.0
 23
253.6935926435454
 33
0.0
  0
MTEXT
  5
363
330
1E
100
AcDbEntity
  8
0
100
AcDbMText
 10
200.0000000111761
 20
257.811402111604
 30
0.0
 40
5.0
 41
0.0
 71
     5
 72
     1
  1
{\Ftxt.shx,bigfont.shx;φ92}
 73
     1
 44
1.0
  0
LINE
  5
364
330
1E
100
AcDbEntity
  8
0
100
AcDbLine
 10
133.5000159999998
 20
275.6793320171343
 30
0.0
 11
133.5000159999998
 21
234.4560708645321
 31
0.0
  0
LINE
  5
365
330
1E
100
AcDbEntity
  8
0
100
AcDbLine
 10
266.500018
 20
275.6793320171343
 30
0.0
 11
266.500018
 21
234.4560708645321
 31
0.0
  0
LINE
  5
366
330
1E
100
AcDbEntity
  8
0
100
AcDbLine
 10
134.5000159999999
 20
234.4560708645321
 30
0.0
 11
199.7000169999999
 21
234.4560708645321
 31
0.0
  0
LINE
  5
367
330
1E
100
AcDbEntity
  8
0
100
AcDbLine
 10
265.500018
 20
234.4560708645321
 30
0.0
 11
200.3000169999999
 21
234.4560708645321
 31
0.0
  0
SOLID
  5
368
330
1E
100
AcDbEntity
  8
0
100
AcDbTrace
 10
134.5000159999999
 20
234.6227375311987
 30
0.0
 11
134.5000159999999
 21
234.2894041978655
 31
0.0
 12
133.5000159999998
 22
234.4560708645321
 32
0.0
 13
133.5000159999998
 23
234.4560708645321
 33
0.0
  0
SOLID
  5
369
330
1E
100
AcDbEntity
  8
0
100
AcDbTrace
 10
265.500018
 20
234.6227375311987
 30
0.0
 11
265.500018
 21
234.2894041978655
 31
0.0
 12
266.500018
 22
234.4560708645321
 32
0.0
 13
266.500018
 23
234.4560708645321
 33
0.0
  0
MTEXT
  5
36A
330
1E
100
AcDbEntity
  8
0
100
AcDbMText
 10
200.0000169999999
 20
238.8819384084845
 30
0.0
 40
5.0
 41
0.0
 71
     5
 72
     1
  1
{\Ftxt.shx,bigfont.shx;φ136}
 73
     1
 44
1.0
  0
MTEXT
  5
36B
330
1E
100
AcDbEntity
  8
0
100
AcDbMText
 10
263.3963287627873
 20
395.3006199037661
 30
0.0
 40
5.0
 41
41.23
 71
     1
 72
     5
  1
{\Ftxt.shx,bigfont.shx;3-φ5.0}
 73
     1
 44
1.0
  0
MTEXT
  5
36F
330
1E
100
AcDbEntity
  8
0
100
AcDbMText
 10
232.0098303444299
 20
463.4974715737601
 30
0.0
 40
5.0
 41
13.84675024435567
 71
     1
 72
     5
  1
{\Ftxt.shx,bigfont.shx;100}
 11
0.0000000000000001
 21
1.0
 31
0.0
 73
     1
 44
1.0
  0
MTEXT
  5
371
330
1E
100
AcDbEntity
  8
0
100
AcDbMText
 10
536.0503784692032
 20
926.9949431475204
 30
0.0
 40
5.0
 41
13.84675024435567
 71
     1
 72
     5
  1
{\Ftxt.shx,bigfont.shx;100}
 11
0.0000000000000001
 21
1.0
 31
0.0
 73
     1
 44
1.0
  0
MTEXT
  5
372
330
1E
100
AcDbEntity
  8
0
100
AcDbMText
 10
172.7230052256607
 20
506.6993348255746
 30
0.0
 40
5.0
 41
17.8013243470221
 71
     1
 72
     5
  1
{\Ftxt.shx,bigfont.shx;100}
 11
0.8660254037844387
 21
0.5
 31
0.0
 73
     1
 44
1.0
  0
MTEXT
  5
374
330
1E
100
AcDbEntity
  8
0
100
AcDbMText
 10
175.4934179922544
 20
446.8813698975196
 30
0.0
 40
5.0
 41
16.01280701397927
 71
     1
 72
     5
  1
{\Ftxt.shx,bigfont.shx;100}
 11
0.8660254037844385
 21
-0.5000000000000007
 31
0.0
 73
     1
 44
1.0
  0
ENDSEC
  0
SECTION
  2
OBJECTS
  0
DICTIONARY
  5
C
330
0
100
AcDbDictionary
281
     1
  3
ACAD_GROUP
350
D
  3
ACAD_PLOTSTYLENAME
350
E
  3
ACAD_MLINESTYLE
350
16
  3
ACAD_PLOTSETTINGS
350
18
  3
ACAD_LAYOUT
350
19
  0
DICTIONARY
  5
D
102
{ACAD_REACTORS
330
C
102
}
330
C
100
AcDbDictionary
281
     1
  0
ACDBDICTIONARYWDFLT
  5
E
102
{ACAD_REACTORS
330
C
102
}
330
C
100
AcDbDictionary
281
     1
  3
Normal
350
F
100
AcDbDictionaryWithDefault
340
F
  0
DICTIONARY
  5
16
102
{ACAD_REACTORS
330
C
102
}
330
C
100
AcDbDictionary
281
     1
  3
Standard
350
17
  0
DICTIONARY
  5
18
102
{ACAD_REACTORS
330
C
102
}
330
C
100
AcDbDictionary
281
     1
  0
DICTIONARY
  5
19
102
{ACAD_REACTORS
330
C
102
}
330
C
100
AcDbDictionary
281
     1
  3
ﾚｲｱｳﾄ1
350
1D
  3
Model
350
21
  0
ACDBPLACEHOLDER
  5
F
102
{ACAD_REACTORS
330
E
102
}
330
E
  0
MLINESTYLE
  5
17
102
{ACAD_REACTORS
330
16
102
}
330
16
100
AcDbMlineStyle
  2
STANDARD
 70
     0
  3

 62
   256
 51
90.0
 52
90.0
 71
     2
 49
0.5
 62
   256
  6
BYLAYER
 49
-0.5
 62
   256
  6
BYLAYER
  0
LAYOUT
  5
1D
102
{ACAD_REACTORS
330
19
102
}
330
19
100
AcDbPlotSettings
  1

  2
自動 Canon LASER SHOT LBP-1820 (merit 上)
  4

  6

 40
0.0
 41
0.0
 42
0.0
 43
0.0
 44
0.0
 45
0.0
 46
0.0
 47
0.0
 48
0.0
 49
0.0
140
0.0
141
0.0
142
1.0
143
1.0
 70
   688
 72
     0
 73
     0
 74
     5
  7

 75
    16
147
1.0
148
0.0
149
0.0
100
AcDbLayout
  1
ﾚｲｱｳﾄ1
 70
     1
 71
     1
 10
0.0
 20
0.0
 11
12.0
 21
9.0
 12
0.0
 22
0.0
 32
0.0
 14
0.0
 24
0.0
 34
0.0
 15
210.0
 25
297.0
 35
0.0
146
0.0
 13
0.0
 23
0.0
 33
0.0
 16
1.0
 26
0.0
 36
0.0
 17
0.0
 27
1.0
 37
0.0
 76
     0
330
1A
  0
LAYOUT
  5
21
102
{ACAD_REACTORS
330
19
102
}
330
19
100
AcDbPlotSettings
  1

  2
自動 Canon LASER SHOT LBP-1820 (merit 上)
  4

  6

 40
0.0
 41
0.0
 42
0.0
 43
0.0
 44
0.0
 45
0.0
 46
0.0
 47
0.0
 48
0.0
 49
0.0
140
0.0
141
0.0
142
1.0
143
1.0
 70
  1712
 72
     0
 73
     0
 74
     0
  7

 75
     0
147
1.0
148
0.0
149
0.0
100
AcDbLayout
  1
Model
 70
     1
 71
     0
 10
0.0
 20
0.0
 11
12.0
 21
9.0
 12
0.0
 22
0.0
 32
0.0
 14
0.0
 24
0.0
 34
0.0
 15
0.0
 25
0.0
 35
0.0
146
0.0
 13
0.0
 23
0.0
 33
0.0
 16
1.0
 26
0.0
 36
0.0
 17
0.0
 27
1.0
 37
0.0
 76
     0
330
1E
  0
ENDSEC
  0
EOF
